Gregorian - Live! Masters of Chant: Final Chapter Tour (2016) [BDRip 720p]

Posted By: v3122
Gregorian - Live! Masters of Chant: Final Chapter Tour (2016) [BDRip 720p]

Gregorian - Live! Masters of Chant: Final Chapter Tour (2016)
MKV: AVC, 1280x720 (16:9), 29.970 fps | AC3 2 ch, 224 Kbps
New Age, Enigmatic, Choral | 02:18:59 | ~ 3.93 Gb

Now it's "Farewell!" Gregorian have opened the last chapter of their successful "Masters Of Chant" saga with the tour to the "Final Chapter". A moving farewell that was held for all fans in stunning pictures. What began in 1999 for producer Frank Peterson and the band developed rapidly into an impressive triumphal procession: Over 10 million albums sold and numerous gold and platinum titles make Gregorian one of the most successful German acts worldwide. For the time being, the unique interpretations of iconic pop and rock singing in Mönchskutte can now be seen and heard as an impressive live documentary. Gregorian is once again able to transform old melodies into a new, timeless sound universe and to take the listener on a fantastic journey through all genres and decades of music history. The breathtaking live production, spiked with a great light and laser show, pyro effects and imposing choreographies is once again an overwhelming live experience with the powerful voices of the classically trained singers under the co-operation of Amelia Brightman and Countertenor Narcis.
Gregorian - Live! Masters of Chant: Final Chapter Tour (2016):

Tracklist:

1. Masters of chant
2. Still haven't found what i'm looking for / only you
3. Stay
4. Join me
5. Lady in black
6. Meadows of heaven
7. Now we are free
8. Strong
9. Shout
10. Cry softly
11. Hurt
12. The raven
13. Kiss from a rose
14. Crying in the rain
15. Caruso
16. One
17. World without end
18. Born to feel alive
19. Hells bells
20. In my life / crazy, crazy nights / good night companions
21. Time to say goodbye
22. Gloria: gregorian version
23. Moment of peace
24. Hymn
25. Just for you
26. Sky & sand

General
Unique ID : 241973568490935261654271771858405746346 (0xB60A6A047815D37E9862000D69D0E6AA)
Complete name : G:\UP\Mix\Gregorian 2016 Live! Masters of Chant Final Chapter Tour\Gregorian Live! Masters of Chant Final Chapter Tour.2016.BDRip720p.mkv
Format : Matroska
Format version : Version 4 / Version 2
File size : 3.62 GiB
Duration : 2h 18mn
Overall bit rate : 3 726 Kbps
Encoded date : UTC 2016-10-14 20:51:55
Writing application : mkvmerge v8.6.0 ('A Place In Your World') 64bit
Writing library : libebml v1.3.3 + libmatroska v1.4.4
DURATION : 02:18:58.240000000
NUMBER_OF_FRAMES : 260570
NUMBER_OF_BYTES : 233470720
_STATISTICS_WRITING_APP : mkvmerge v8.6.0 ('A Place In Your World') 64bit
_STATISTICS_WRITING_DATE_UTC : 2016-10-14 20:51:55
_STATISTICS_TAGS : BPS DURATION NUMBER_OF_FRAMES NUMBER_OF_BYTES

Video
ID : 1
Format : AVC
Format/Info : Advanced Video Codec
Format profile : High@L4.1
Format settings, CABAC : Yes
Format settings, ReFrames : 9 frames
Codec ID : V_MPEG4/ISO/AVC
Duration : 2h 18mn
Bit rate : 3 500 Kbps
Width : 1 280 pixels
Height : 720 pixels
Display aspect ratio : 16:9
Frame rate mode : Constant
Frame rate : 29.970 fps
Color space : YUV
Chroma subsampling : 4:2:0
Bit depth : 8 bits
Scan type : Progressive
Bits/(Pixel*Frame) : 0.127
Stream size : 3.33 GiB (92%)
Writing library : x264 core 146 r2538 121396c
Encoding settings : cabac=1 / ref=9 / deblock=1:-1:-1 / analyse=0x3:0x133 / me=umh / subme=10 / psy=1 / psy_rd=1.00:0.13 / mixed_ref=1 / me_range=30 / chroma_me=1 / trellis=2 / 8x8dct=1 / cqm=0 / deadzone=21,11 / fast_pskip=1 / chroma_qp_offset=-3 / threads=6 / lookahead_threads=1 / sliced_threads=0 / nr=0 / decimate=1 / interlaced=0 / bluray_compat=0 / constrained_intra=0 / bframes=8 / b_pyramid=2 / b_adapt=2 / b_bias=0 / direct=3 / weightb=1 / open_gop=0 / weightp=2 / keyint=300 / keyint_min=29 / scenecut=40 / intra_refresh=0 / rc_lookahead=100 / rc=2pass / mbtree=1 / bitrate=3500 / ratetol=1.0 / qcomp=0.60 / qpmin=0 / qpmax=69 / qpstep=4 / cplxblur=20.0 / qblur=0.5 / vbv_maxrate=50000 / vbv_bufsize=62500 / nal_hrd=none / filler=0 / ip_ratio=1.40 / aq=1:1.00
Default : Yes
Forced : No

Audio
ID : 2
Format : AC-3
Format/Info : Audio Coding 3
Mode extension : CM (complete main)
Format settings, Endianness : Big
Codec ID : A_AC3
Duration : 2h 18mn
Bit rate mode : Constant
Bit rate : 224 Kbps
Channel(s) : 2 channels
Channel positions : Front: L R
Sampling rate : 48.0 KHz
Bit depth : 16 bits
Compression mode : Lossy
Stream size : 223 MiB (6%)
Default : Yes
Forced : No

Menu
00:00:00.000 : en:01. Masters of chant
00:06:27.220 : en:02. Still haven't found what i'm looking for / only you
00:11:19.445 : en:03. Stay
00:15:18.484 : en:04. Join me
00:19:39.211 : en:05. Lady in black
00:24:10.883 : en:06. Meadows of heaven
00:29:30.335 : en:07. Now we are free
00:33:45.323 : en:08. Strong
00:37:12.831 : en:09. Shout
00:43:31.876 : en:10. Cry softly
00:48:10.054 : en:11. Hurt
00:54:00.404 : en:12. The raven
00:58:25.635 : en:13. Kiss from a rose
01:03:36.212 : en:14. Crying in the rain
01:08:28.771 : en:15. Caruso
01:15:06.936 : en:16. One
01:20:06.535 : en:17. World without end
01:23:44.753 : en:18. Born to feel alive
01:33:05.880 : en:19. Hells bells
01:41:27.548 : en:20. In my life / crazy, crazy nights / good night companions
01:46:25.813 : en:21. Time to say goodbye
01:51:16.937 : en:22. Gloria: gregorian version
01:56:40.126 : en:23. Moment of peace
02:01:29.649 : en:24. Hymn
02:07:14.927 : en:25. Just for you
02:11:08.394 : en:26. Sky & sand



Gregorian - Live! Masters of Chant: Final Chapter Tour (2016) [BDRip 720p]

Gregorian - Live! Masters of Chant: Final Chapter Tour (2016) [BDRip 720p]

Gregorian - Live! Masters of Chant: Final Chapter Tour (2016) [BDRip 720p]

Gregorian - Live! Masters of Chant: Final Chapter Tour (2016) [BDRip 720p]

Gregorian - Live! Masters of Chant: Final Chapter Tour (2016) [BDRip 720p]

Gregorian - Live! Masters of Chant: Final Chapter Tour (2016) [BDRip 720p]

Gregorian - Live! Masters of Chant: Final Chapter Tour (2016) [BDRip 720p]

Gregorian - Live! Masters of Chant: Final Chapter Tour (2016) [BDRip 720p]

All thanks go to anbelk27

Download Gregorian - Live! Masters of Chant: Final Chapter Tour (2016):