Tags
Language
Tags

Gentle Giant - King Biscuit Flower Hour Presents Gentle Giant (1998)

Posted By: v3122
Gentle Giant - King Biscuit Flower Hour Presents Gentle Giant (1998)

Gentle Giant - King Biscuit Flower Hour Presents Gentle Giant (1998)
EAC | Flac(Image) + Cue + Log & MP3 CBR 320Kbps
King Biscuit Flower Hour Records, 70710-88035-2 | ~ 289 or 108 Mb | Artwork -> 1.40 Mb
Progressive Rock

This concert captures Gentle Giant at the top of their form and the peak of their fame in the United States, coming off of a Top 50 U.S. chart placement the previous year for The Power and the Glory. The song lineup includes "Proclamation" and "So Sincere" from that album, "The Runaway" and "Experience" from In a Glass House, "Funny Ways" from the very first album (which only got a U.S. release as a CD), and "Knots" from Octopus, all performed in pretty intense fashion on stage. This show dates from January 18, 1975 at New York's Academy of Music – the group's sound surges forth alternately in massive sheets and elegant little percussive flourishes and forays into classical guitar. The seven songs seem paltry next to the lineup on Playing the Fool, but the band plays with more spirit – actually, manic energy – two years earlier in their history. Little of this, especially "So Sincere" and the Glass House tracks, was going to make any new converts, although they're played pretty ferociously here, and the whole set seems a lot more interesting and challenging today than a lot of ELP live stuff from this era.

by Bruce Eder, allmusic
AGentle Giant - King Biscuit Flower Hour Presents Gentle Giant (1998):

Tracklist:

1. Proclamation - 5:00
2. Funny Ways - 7:57
3. The Runaway - 3:53
4. Experience - 5:55
5. So Sincere - 8:53
6. Knots - 7:01
7. The Advent Of Panurge - 5:53

Exact Audio Copy V1.1 from 23. June 2015

EAC extraction logfile from 26. January 2017, 10:27

Gentle Giant / King Biscuit Flower Hour Presents Gentle Giant

Used drive : ATAPI iHAS624 B Adapter: 1 ID: 1

Read mode : Secure
Utilize accurate stream : Yes
Defeat audio cache : Yes
Make use of C2 pointers : No

Read offset correction : 6
Overread into Lead-In and Lead-Out : No
Fill up missing offset samples with silence : Yes
Delete leading and trailing silent blocks : No
Null samples used in CRC calculations : Yes
Used interface : Native Win32 interface for Win NT & 2000
Gap handling : Appended to previous track

Used output format : User Defined Encoder
Selected bitrate : 1024 kBit/s
Quality : High
Add ID3 tag : No
Command line compressor : C:\Program Files (x86)\Exact Audio Copy\Flac\flac.exe
Additional command line options : -8 -e -V -T "ARTIST=%artist%" -T "TITLE=%title%" -T "ALBUM=%albumtitle%" -T "DATE=%year%" -T "TRACKNUMBER=%tracknr%" -T "GENRE=%genre%" -T "PERFORMER=%albuminterpret%" -T "COMPOSER=%composer%" %haslyrics%–tag-from-file=LYRICS="%lyricsfile%"%haslyrics% -T "ALBUMARTIST=%albumartist%" -T "DISCNUMBER=%cdnumber%" -T "TOTALDISCS=%totalcds%" -T "TOTALTRACKS=%numtracks%" -T "COMMENT=%comment%" %source% -o %dest%


TOC of the extracted CD

Track | Start | Length | Start sector | End sector
––––––––––––––––––––––––––––-
1 | 0:00.00 | 5:00.00 | 0 | 22499
2 | 5:00.00 | 8:31.55 | 22500 | 60879
3 | 13:31.55 | 3:52.57 | 60880 | 78336
4 | 17:24.37 | 6:17.40 | 78337 | 106651
5 | 23:42.02 | 9:00.03 | 106652 | 147154
6 | 32:42.05 | 7:00.62 | 147155 | 178716
7 | 39:42.67 | 5:53.40 | 178717 | 205231


Track 1

Filename F:\Uploads\Gentle Giant\Gentle Giant - King Biscuit Flower Hour Presents Gentle Giant [1998] (FLAC 16-44)\EAC\01 - Proclamation.wav

Pre-gap length 0:00:02.00

Peak level 100.0 %
Extraction speed 3.9 X
Track quality 100.0 %
Test CRC D31BA089
Copy CRC D31BA089
Cannot be verified as accurate (confidence 12) [2BCBE1E5], AccurateRip returned [ADA38D05] (AR v2)
Copy OK

Track 2

Filename F:\Uploads\Gentle Giant\Gentle Giant - King Biscuit Flower Hour Presents Gentle Giant [1998] (FLAC 16-44)\EAC\02 - Funny Ways.wav

Peak level 100.0 %
Extraction speed 4.7 X
Track quality 100.0 %
Test CRC 35704400
Copy CRC 35704400
Cannot be verified as accurate (confidence 12) [83DBA619], AccurateRip returned [A2DD55A8] (AR v2)
Copy OK

Track 3

Filename F:\Uploads\Gentle Giant\Gentle Giant - King Biscuit Flower Hour Presents Gentle Giant [1998] (FLAC 16-44)\EAC\03 - The Runaway.wav

Peak level 100.0 %
Extraction speed 3.8 X
Track quality 99.9 %
Test CRC 2CB4C37C
Copy CRC 2CB4C37C
Cannot be verified as accurate (confidence 12) [755E1967], AccurateRip returned [521091CF] (AR v2)
Copy OK

Track 4

Filename F:\Uploads\Gentle Giant\Gentle Giant - King Biscuit Flower Hour Presents Gentle Giant [1998] (FLAC 16-44)\EAC\04 - Experience.wav

Peak level 100.0 %
Extraction speed 5.4 X
Track quality 100.0 %
Test CRC 28E2A93C
Copy CRC 28E2A93C
Cannot be verified as accurate (confidence 12) [AA7038BA], AccurateRip returned [28A883F4] (AR v2)
Copy OK

Track 5

Filename F:\Uploads\Gentle Giant\Gentle Giant - King Biscuit Flower Hour Presents Gentle Giant [1998] (FLAC 16-44)\EAC\05 - So Sincere.wav

Peak level 100.0 %
Extraction speed 6.0 X
Track quality 100.0 %
Test CRC 37DF3AD5
Copy CRC 37DF3AD5
Cannot be verified as accurate (confidence 12) [DF0A4026], AccurateRip returned [55E32E0E] (AR v2)
Copy OK

Track 6

Filename F:\Uploads\Gentle Giant\Gentle Giant - King Biscuit Flower Hour Presents Gentle Giant [1998] (FLAC 16-44)\EAC\06 - Knots.wav

Peak level 100.0 %
Extraction speed 6.4 X
Track quality 100.0 %
Test CRC C981987F
Copy CRC C981987F
Cannot be verified as accurate (confidence 13) [740E9760], AccurateRip returned [9D96E8F1] (AR v2)
Copy OK

Track 7

Filename F:\Uploads\Gentle Giant\Gentle Giant - King Biscuit Flower Hour Presents Gentle Giant [1998] (FLAC 16-44)\EAC\07 - The Advent Of Panurge.wav

Peak level 100.0 %
Extraction speed 6.6 X
Track quality 100.0 %
Test CRC F7D2B6E8
Copy CRC F7D2B6E8
Cannot be verified as accurate (confidence 13) [6A944E86], AccurateRip returned [ADC3C18D] (AR v2)
Copy OK


No tracks could be verified as accurate
You may have a different pressing from the one(s) in the database

No errors occurred

End of status report

–– CUETools DB Plugin V2.1.6

[CTDB TOCID: tpacYB4GMc55MMCV0xeZJ0THzCc-] found
Submit result: tpacYB4GMc55MMCV0xeZJ0THzCc- has been confirmed
Track | CTDB Status
1 | (25/25) Accurately ripped
2 | (25/25) Accurately ripped
3 | (25/25) Accurately ripped
4 | (25/25) Accurately ripped
5 | (25/25) Accurately ripped
6 | (25/25) Accurately ripped
7 | (25/25) Accurately ripped


==== Log checksum 61EE249022B240025FB197A2D365AAD9698A04D45819D1AEC9A48A725BE1F3E4 ====


[CUETools log; Date: 24.06.2022 8:39:44; Version: 2.1.4]
[AccurateRip ID: 000c32f1-004a0186-4e0ab007] found.
Track [ CRC | V2 ] Status
01 [df6ff485|2bcbe1e5] (00+00/45) No match
02 [028ff10b|83dba619] (00+00/45) No match
03 [e49bd5c2|755e1967] (00+00/45) No match
04 [2dda8c2e|aa7038ba] (00+00/45) No match
05 [d9a385a2|df0a4026] (00+00/45) No match
06 [19af6ae1|740e9760] (00+00/46) No match
07 [5ea2ea37|6a944e86] (00+00/46) No match
Offsetted by -687:
01 [48e681f1] (05/45) Accurately ripped
02 [80a75cd3] (05/45) Accurately ripped
03 [0a6113a0] (05/45) Accurately ripped
04 [e33c0bc9] (05/45) Accurately ripped
05 [5e905bb1] (05/45) Accurately ripped
06 [201ed141] (05/46) Accurately ripped
07 [997cef93] (05/46) Accurately ripped
Offsetted by -6:
01 [5eefe511] (09/45) Accurately ripped
02 [22eb8f1a] (09/45) Accurately ripped
03 [bfc034a1] (09/45) Accurately ripped
04 [ae11d36e] (09/45) Accurately ripped
05 [508523e5] (09/45) Accurately ripped
06 [454ee201] (09/46) Accurately ripped
07 [9f08804e] (09/46) Accurately ripped
Offsetted by -675:
01 [429175ed] (00/45) No match (V2 was not tested)
02 [ecb9b15d] (00/45) No match (V2 was not tested)
03 [04c1653c] (00/45) No match (V2 was not tested)
04 [fbc6fe76] (00/45) No match (V2 was not tested)
05 [28feeab7] (00/45) No match (V2 was not tested)
06 [aaecef0d] (00/46) No match (V2 was not tested)
07 [4d11e1ba] (00/46) No match (V2 was not tested)
Offsetted by -665:
01 [5cfe866e] (00/45) No match (V2 was not tested)
02 [6e0ded4d] (00/45) No match (V2 was not tested)
03 [708650a3] (00/45) No match (V2 was not tested)
04 [8c71a3fc] (00/45) No match (V2 was not tested)
05 [15b31f17] (00/45) No match (V2 was not tested)
06 [8ced9ae5] (00/46) No match (V2 was not tested)
07 [392a8fe0] (00/46) No match (V2 was not tested)
Offsetted by 471:
01 [26794ba7] (00/45) No match (V2 was not tested)
02 [e73851f5] (00/45) No match (V2 was not tested)
03 [af99b06a] (00/45) No match (V2 was not tested)
04 [a9e7edff] (00/45) No match (V2 was not tested)
05 [c12c648e] (00/45) No match (V2 was not tested)
06 [7925408c] (00/46) No match (V2 was not tested)
07 [1ad2ca8f] (00/46) No match (V2 was not tested)

Track Peak [ CRC32 ] [W/O NULL] [ LOG ]
– 100,0 [7C9AD51C] [4C064846]
01 100,0 [D31BA089] [FA4B5E38] CRC32
02 100,0 [35704400] [D5A975FB] CRC32
03 100,0 [2CB4C37C] [B37197B9] CRC32
04 100,0 [28E2A93C] [5EA9E8EA] CRC32
05 100,0 [37DF3AD5] [70025D47] CRC32
06 100,0 [C981987F] [5645FCEB] CRC32
07 100,0 [F7D2B6E8] [C8FA6B8B] CRC32


All thanks go to the original releaser

Gentle Giant in my Blog

Download Gentle Giant - King Biscuit Flower Hour Presents Gentle Giant (1998):