Tags
Language
Tags
October 2022
Su Mo Tu We Th Fr Sa
25 26 27 28 29 30 1
2 3 4 5 6 7 8
9 10 11 12 13 14 15
16 17 18 19 20 21 22
23 24 25 26 27 28 29
30 31 1 2 3 4 5

Front Page Review - Mystic Soldiers [Recorded 1968] (1997)

Posted By: gribovar
Front Page Review - Mystic Soldiers [Recorded 1968] (1997)

Front Page Review - Mystic Soldiers [Recorded 1968] (1997)
EAC Rip | FLAC (tracks+.cue+log) - 162 MB | MP3 CBR 320 kbps (LAME 3.93) - 66 MB | Covers - 11 MB
Genre: Psychedelic Rock | RAR 3% Rec. | Label: Big Beat (CDWIKD 166)

Front Page Review rubbed shoulders with bands like Eden's Children, Beacon Street Union and Strawberry Alarm Clock. With legendary producer Alan Lorber behind the controls, they recorded in 1968 a whole album for MGM which was never released at the time. Mystic Soldiers is a prime example of late '60s U.S. psychedelic rock, featuring a young Steve Cataldo (Saint Steven, Nervous Eaters) on songwriting/vocals. All the right ingredients are featured here: wah-fuzz guitars, organ, phasing, effects.
Tracklist:
01. Prophecies/Morning Blue
02. Prism Fawn
03. One Eyed Minor
04. Feels Like Love
05. Silver Children
06. Valley Of Eyes
07. Without You
08. For The Best Offer

Total time: 28:10

Exact Audio Copy V1.0 beta 1 from 15. November 2010

EAC extraction logfile from 15. May 2011, 5:58

Front Page Review / Mystic Soldiers

Used drive : TSSTcorpCDDVDW TS-L633C Adapter: 1 ID: 0

Read mode : Secure
Utilize accurate stream : Yes
Defeat audio cache : Yes
Make use of C2 pointers : No

Read offset correction : 6
Overread into Lead-In and Lead-Out : No
Fill up missing offset samples with silence : Yes
Delete leading and trailing silent blocks : No
Null samples used in CRC calculations : Yes
Used interface : Native Win32 interface for Win NT & 2000
Gap handling : Appended to previous track

Used output format : User Defined Encoder
Selected bitrate : 768 kBit/s
Quality : High
Add ID3 tag : No
Command line compressor : C:\Program Files\Exact Audio Copy\FLAC\FLAC.EXE
Additional command line options : -6 -V -T "ARTIST=%a" -T "TITLE=%t" -T "ALBUM=%g" -T "DATE=%y" -T "TRACKNUMBER=%n" -T "GENRE=%m" -T "COMMENT=%e" %j–picture="%i"%j %s -o %d


TOC of the extracted CD

Track | Start | Length | Start sector | End sector
––––––––––––––––––––––––––––-
1 | 0:00.05 | 3:54.02 | 5 | 17556
2 | 3:54.07 | 3:44.10 | 17557 | 34366
3 | 7:38.17 | 1:54.53 | 34367 | 42969
4 | 9:32.70 | 2:32.12 | 42970 | 54381
5 | 12:05.07 | 6:27.35 | 54382 | 83441
6 | 18:32.42 | 2:16.25 | 83442 | 93666
7 | 20:48.67 | 3:45.50 | 93667 | 110591
8 | 24:34.42 | 3:35.33 | 110592 | 126749


Track 1

Filename H:\music\yalinc\Front Page Review - Mystic Soldiers\01 - Front Page Review - Prophecies - Morning Blue.wav

Pre-gap length 0:00:02.05

Peak level 94.4 %
Extraction speed 1.6 X
Track quality 100.0 %
Test CRC FA5C97E2
Copy CRC FA5C97E2
Track not present in AccurateRip database
Copy OK

Track 2

Filename H:\music\yalinc\Front Page Review - Mystic Soldiers\02 - Front Page Review - Prism Fawn.wav

Peak level 87.2 %
Extraction speed 1.5 X
Track quality 99.9 %
Test CRC D399779D
Copy CRC D399779D
Track not present in AccurateRip database
Copy OK

Track 3

Filename H:\music\yalinc\Front Page Review - Mystic Soldiers\03 - Front Page Review - One Eyed Minor.wav

Peak level 82.3 %
Extraction speed 1.6 X
Track quality 100.0 %
Test CRC 7A6C5D5C
Copy CRC 7A6C5D5C
Track not present in AccurateRip database
Copy OK

Track 4

Filename H:\music\yalinc\Front Page Review - Mystic Soldiers\04 - Front Page Review - Feels Like Love.wav

Peak level 87.7 %
Extraction speed 1.8 X
Track quality 100.0 %
Test CRC 1E4C47B3
Copy CRC 1E4C47B3
Track not present in AccurateRip database
Copy OK

Track 5

Filename H:\music\yalinc\Front Page Review - Mystic Soldiers\05 - Front Page Review - Silver Children.wav

Peak level 94.4 %
Extraction speed 2.2 X
Track quality 100.0 %
Test CRC 0A48398F
Copy CRC 0A48398F
Track not present in AccurateRip database
Copy OK

Track 6

Filename H:\music\yalinc\Front Page Review - Mystic Soldiers\06 - Front Page Review - Valley Of Eyes.wav

Peak level 90.3 %
Extraction speed 2.0 X
Track quality 100.0 %
Test CRC 5C217B07
Copy CRC 5C217B07
Track not present in AccurateRip database
Copy OK

Track 7

Filename H:\music\yalinc\Front Page Review - Mystic Soldiers\07 - Front Page Review - Without You.wav

Peak level 85.1 %
Extraction speed 2.2 X
Track quality 100.0 %
Test CRC 15780449
Copy CRC 15780449
Track not present in AccurateRip database
Copy OK

Track 8

Filename H:\music\yalinc\Front Page Review - Mystic Soldiers\08 - Front Page Review - For The Best Offer.wav

Peak level 83.3 %
Extraction speed 2.3 X
Track quality 100.0 %
Test CRC 8053ECDE
Copy CRC 8053ECDE
Track not present in AccurateRip database
Copy OK


None of the tracks are present in the AccurateRip database

No errors occurred

End of status report

[CUETools log; Date: 16.08.2022 13:42:27; Version: 2.1.4]
Pregap length 00:00:05.
[CTDB TOCID: JkcqiU4.yNqIW8LJAQPfgE5l_Jw-] found.
Track | CTDB Status
1 | (1/1) Accurately ripped
2 | (1/1) Accurately ripped
3 | (1/1) Accurately ripped
4 | (1/1) Accurately ripped
5 | (1/1) Accurately ripped
6 | (1/1) Accurately ripped
7 | (1/1) Accurately ripped
8 | (1/1) Accurately ripped
[AccurateRip ID: 00089a14-00396e69-58069a08] found.
Track [ CRC | V2 ] Status
01 [15eab838|dcdc4c6c] (0+1/1) Accurately ripped
02 [6d681ad9|b790ab4f] (0+1/1) Accurately ripped
03 [06705d23|7852070f] (0+1/1) Accurately ripped
04 [a7335f82|3169c47b] (0+1/1) Accurately ripped
05 [66d457fd|23558331] (0+1/1) Accurately ripped
06 [d005d121|ca639c83] (0+1/1) Accurately ripped
07 [44b0ea4d|c9a19a8d] (0+1/1) Accurately ripped
08 [bb4d7f77|9ffe1da6] (0+1/1) Accurately ripped

Track Peak [ CRC32 ] [W/O NULL] [ LOG ]
– 94,4 [D14F4D7D] [E316EEE6]
01 94,4 [FA5C97E2] [9C171217] CRC32
02 87,2 [D399779D] [181B52FD] CRC32
03 82,3 [7A6C5D5C] [B7C841AE] CRC32
04 87,7 [1E4C47B3] [F4B16125] CRC32
05 94,4 [0A48398F] [5D3B388C] CRC32
06 90,3 [5C217B07] [A1FF9218] CRC32
07 85,1 [15780449] [8B8C5616] CRC32
08 83,3 [8053ECDE] [315554A3] CRC32

Thanks to yalinc