Freddie Hubbard - Splash (1981) {Fantasy}

Posted By: tiburon
Freddie Hubbard - Splash (1981) {Fantasy}

Freddie Hubbard - Splash (1981) {Fantasy}
EAC 1.0b3 | FLAC tracks level 8 | Cue+Log+M3U | Full Scans 600dpi | 259MB + 5% Recovery
MP3 CBR 320 Kbps | 122MB + 5% Recovery
Genre: Jazz-Funk

Freddie Hubbard makes a sweet splash for the 80s in this great little set – one of his last electric outings before a return to more acoustic modes! The vibe's a bit leaner than some of his late 70s albums, with most of the electricity coming from the bass, and from the keyboards by Chester Thompson or Louis Small – but the record's definitely got that soaring sense of flow that Freddie brought to his best work of this nature – that new sound he unlocked during the 70s, which finally seemed to find the right voice for that mighty horn of his!
Track List
01. Splash 5:02
02. Mystic Lady 4:53
03. I'm Yours 4:51
04. Touchdown 5:08
05. You're Gonna Lose Me 5:20
06. Sister Stine 5:24
07. Jarri 6:34

musicians
Freddie Hubbard - trumpet, flugelhorn
Chester Thompson - keyboards
David T. Walker - guitar
Paul Jackson Jr. - guitar
Louis Small - keyboards
Clarence McDonald - keyboards
Ron Brown - bass
David Sheilds - bass
Jim Keltner - drums
James Gadson - drums
Al Hall Jr. - synthesizer, trombone, percussion
William "Buck" Clarke - percussion
Tony Flores - percussion
Maurice "Mo" Young - backing vocals
Jeanie Tracy - vocals, backing vocals

Produced by Freddie Hubbard and Al Hall, Jr.


Exact Audio Copy V1.0 beta 3 from 29. August 2011

EAC extraction logfile from 14. January 2012, 11:13

Freddie Hubbard / Splash

Used drive : HL-DT-STDVDRAM GE20LU11 Adapter: 2 ID: 0

Read mode : Secure
Utilize accurate stream : Yes
Defeat audio cache : Yes
Make use of C2 pointers : No

Read offset correction : 667
Overread into Lead-In and Lead-Out : No
Fill up missing offset samples with silence : Yes
Delete leading and trailing silent blocks : No
Null samples used in CRC calculations : Yes
Used interface : Native Win32 interface for Win NT & 2000
Gap handling : Appended to previous track

Used output format : User Defined Encoder
Selected bitrate : 128 kBit/s
Quality : High
Add ID3 tag : No
Command line compressor : C:\Program Files (x86)\Exact Audio Copy\Flac\flac.exe
Additional command line options : -8 -V -T "ARTIST=%artist%" -T "TITLE=%title%" -T "ALBUM=%albumtitle%" -T "DATE=%year%" -T "TRACKNUMBER=%tracknr%" -T "TOTALTRACKS=%numtracks%" -T "GENRE=%genre%" -T "ALBUMARTIST=%albumartist%" -T "ALBUM ARTIST=%albumartist%" -T "COMMENT=EAC Secure Mode, Test & Copy, AccurateRip, FLAC -8" %source%


TOC of the extracted CD

Track | Start | Length | Start sector | End sector
––––––––––––––––––––––––––––-
1 | 0:00.00 | 5:05.41 | 0 | 22915
2 | 5:05.41 | 4:54.18 | 22916 | 44983
3 | 9:59.59 | 4:59.13 | 44984 | 67421
4 | 14:58.72 | 5:12.47 | 67422 | 90868
5 | 20:11.44 | 5:26.39 | 90869 | 115357
6 | 25:38.08 | 5:26.56 | 115358 | 139863
7 | 31:04.64 | 7:18.50 | 139864 | 172763


Track 1

Filename C:\Users\HP\Music\01 - Splash.wav

Pre-gap length 0:00:02.00

Peak level 96.6 %
Extraction speed 1.1 X
Track quality 100.0 %
Test CRC 4B7F89D4
Copy CRC 4B7F89D4
Track not present in AccurateRip database
Copy OK

Track 2

Filename C:\Users\HP\Music\02 - Mystic Lady.wav

Peak level 96.6 %
Extraction speed 1.2 X
Track quality 100.0 %
Test CRC 64DA0460
Copy CRC 64DA0460
Track not present in AccurateRip database
Copy OK

Track 3

Filename C:\Users\HP\Music\03 - I'm Yours.wav

Pre-gap length 0:00:01.73

Peak level 96.6 %
Extraction speed 1.3 X
Track quality 100.0 %
Test CRC C50562EC
Copy CRC C50562EC
Track not present in AccurateRip database
Copy OK

Track 4

Filename C:\Users\HP\Music\04 - Touchdown.wav

Pre-gap length 0:00:01.73

Peak level 96.6 %
Extraction speed 1.4 X
Track quality 100.0 %
Test CRC 1605E817
Copy CRC 1605E817
Track not present in AccurateRip database
Copy OK

Track 5

Filename C:\Users\HP\Music\05 - You're Gonna Lose Me.wav

Pre-gap length 0:00:01.73

Peak level 96.6 %
Extraction speed 1.6 X
Track quality 100.0 %
Test CRC 88F525FC
Copy CRC 88F525FC
Track not present in AccurateRip database
Copy OK

Track 6

Filename C:\Users\HP\Music\06 - Sister 'Stine.wav

Pre-gap length 0:00:01.73

Peak level 96.6 %
Extraction speed 1.7 X
Track quality 100.0 %
Test CRC 4FBCA987
Copy CRC 4FBCA987
Track not present in AccurateRip database
Copy OK

Track 7

Filename C:\Users\HP\Music\07 - Jarri.wav

Pre-gap length 0:00:01.73

Peak level 96.6 %
Extraction speed 1.9 X
Track quality 100.0 %
Test CRC 2BFF23B0
Copy CRC 2BFF23B0
Track not present in AccurateRip database
Copy OK


None of the tracks are present in the AccurateRip database

No errors occurred

End of status report

==== Log checksum 4142842455DA7C275B30FE2D74E6F905104BD75533B276216E48BC0C1A93DA00 ====


––––––––––––––––––––––––––––––––––––––––
Analyzed: Freddie Hubbard / Splash
––––––––––––––––––––––––––––––––––––––––

DR Peak RMS Duration Track
––––––––––––––––––––––––––––––––––––––––
DR11 -0.30 dB -13.21 dB 5:06 01-Splash
DR10 -0.30 dB -12.31 dB 4:54 02-Mystic Lady
DR11 -0.30 dB -13.37 dB 4:59 03-I'm Yours
DR12 -0.30 dB -13.85 dB 5:13 04-Touchdown
DR12 -0.30 dB -14.70 dB 5:27 05-You're Gonna Lose Me
DR12 -0.30 dB -13.49 dB 5:27 06-Sister 'Stine
DR11 -0.30 dB -12.89 dB 7:19 07-Jarri
––––––––––––––––––––––––––––––––––––––––

Number of tracks: 7
Official DR value: DR11

Samplerate: 44100 Hz
Channels: 2
Bits per sample: 16
Bitrate: 830 kbps
Codec: FLAC
================================================================================

Freddie Hubbard - Splash (1981) {Fantasy}
Freddie Hubbard - Splash (1981) {Fantasy}
Freddie Hubbard - Splash (1981) {Fantasy}


Thanks to the original ripper