Tags
Language
Tags

Fleetwood Mac - Time (1995)

Posted By: v3122
Fleetwood Mac - Time (1995)

Fleetwood Mac - Time (1995)
EAC | Flac(Image) + Cue + Log & MP3 CBR 320Kbps
Warner Bros., 9362-45920-2 | ~ 429 or 157 Mb | Scans
Pop Rock

The temptation is to compare this version of Fleetwood Mac with the multiplatinum quintet that peaked in the '70s and then made a triumphant return in 1997. But there've been some half dozen versions of Mac over the last 28 years, some significantly more memorable than others. This 1995 lineup isn't likely to make anyone forget Rumours. Three stalwart members–Mick Fleetwood, John McVie, and Christine McVie–are back, joined by 10-year Mac vet Billy Burnette and short-term members Bekka Bramlett (the daughter of first generation Mac contemporaries Delaney and Bonnie Bramlett) and journeyman rocker Dave Mason. The spotlight inevitably shines brightest upon McVie, who responds with four songs that are never less, or more, than pleasant. For their part, Burnette, Bramlett, and Mason check in with mostly nondescript contributions.

by Steven Stolder
Fleetwood Mac - Time (1995):

Fleetwood Mac - Time (1995)

Tracklist:

01. Talkin' to My Heart - 4:56
02. Hollywood (Some Other Kind of Town) - 5:46
03. Blow by Blow - 4:28
04. Winds Of Change - 4:28
05. I Do - 4:28
06. Nothing Without You - 3:09
07. Dreamin' the Dream - 3:46
08. Sooner Or Later - 5:42
09. I Wonder Why - 4:30
10. Nights In Estoril - 4:47
11. I Got It in for You - 4:11
12. All Over Again - 3:37
13. These Strange Times - 7:07

Exact Audio Copy V1.0 beta 3 from 29. August 2011

EAC extraction logfile from 27. February 2014, 10:45

Fleetwood Mac / Time

Used drive : Optiarc BD RW BD-5300S Adapter: 0 ID: 0

Read mode : Secure
Utilize accurate stream : Yes
Defeat audio cache : Yes
Make use of C2 pointers : No

Read offset correction : 6
Overread into Lead-In and Lead-Out : No
Fill up missing offset samples with silence : Yes
Delete leading and trailing silent blocks : No
Null samples used in CRC calculations : Yes
Used interface : Installed external ASPI interface

Used output format : User Defined Encoder
Selected bitrate : 128 kBit/s
Quality : High
Add ID3 tag : Yes
Command line compressor : C:\Program Files (x86)\Exact Audio Copy\Flac\flac.exe
Additional command line options : -V -8 %source%


TOC of the extracted CD

Track | Start | Length | Start sector | End sector
––––––––––––––––––––––––––––-
1 | 0:00.00 | 4:56.35 | 0 | 22234
2 | 4:56.35 | 5:45.72 | 22235 | 48181
3 | 10:42.32 | 4:27.38 | 48182 | 68244
4 | 15:09.70 | 4:28.25 | 68245 | 88369
5 | 19:38.20 | 4:28.07 | 88370 | 108476
6 | 24:06.27 | 3:08.60 | 108477 | 122636
7 | 27:15.12 | 3:45.40 | 122637 | 139551
8 | 31:00.52 | 5:41.38 | 139552 | 165164
9 | 36:42.15 | 4:29.60 | 165165 | 185399
10 | 41:12.00 | 4:47.22 | 185400 | 206946
11 | 45:59.22 | 4:10.53 | 206947 | 225749
12 | 50:10.00 | 3:36.40 | 225750 | 241989
13 | 53:46.40 | 7:07.22 | 241990 | 274036


Range status and errors

Selected range

Filename G:\CD\Fleetwood Mac - Time.wav

Peak level 100.0 %
Extraction speed 3.6 X
Range quality 100.0 %
Test CRC 0E1206C6
Copy CRC 0E1206C6
Copy OK

No errors occurred


AccurateRip summary

Track 1 accurately ripped (confidence 7) [C4E6BB03] (AR v2)
Track 2 accurately ripped (confidence 7) [DBF6EA8D] (AR v2)
Track 3 accurately ripped (confidence 7) [23EFF82F] (AR v2)
Track 4 accurately ripped (confidence 7) [66845712] (AR v2)
Track 5 accurately ripped (confidence 7) [222A7D55] (AR v2)
Track 6 accurately ripped (confidence 7) [916B2F51] (AR v2)
Track 7 accurately ripped (confidence 7) [AD3D7931] (AR v2)
Track 8 accurately ripped (confidence 7) [20D505FA] (AR v2)
Track 9 accurately ripped (confidence 7) [0B8AF29D] (AR v2)
Track 10 accurately ripped (confidence 7) [AEAA5907] (AR v2)
Track 11 accurately ripped (confidence 7) [B8F71620] (AR v2)
Track 12 accurately ripped (confidence 7) [A1071B24] (AR v2)
Track 13 accurately ripped (confidence 7) [66830C5D] (AR v2)

All tracks accurately ripped

End of status report

Fleetwood Mac - Time (1995)

All thanks go to gerrV