Tags
Language
Tags
September 2022
Su Mo Tu We Th Fr Sa
28 29 30 31 1 2 3
4 5 6 7 8 9 10
11 12 13 14 15 16 17
18 19 20 21 22 23 24
25 26 27 28 29 30 1

Fleetwood Mac - Rumours (1977)

Posted By: v3122
Fleetwood Mac - Rumours (1977)

Fleetwood Mac - Rumours (1977)
EAC | Flac(Image) + Cue + Log & MP3 CBR 320Kbps
1990 | Warner Bros, 3010-2 | ~ 245 or 95 Mb | Scans(png) -> 36 Mb
Pop Rock, Classic Rock

Rumours is the kind of album that transcends its origins and reputation, entering the realm of legend – it's an album that simply exists outside of criticism and outside of its time, even if it thoroughly captures its era. Prior to this LP, Fleetwood Mac were moderately successful, but here they turned into a full-fledged phenomenon, with Rumours becoming the biggest-selling pop album to date. While its chart success was historic, much of the legend surrounding the record is born from the group's internal turmoil. Unlike most bands, Fleetwood Mac in the mid-'70s were professionally and romantically intertwined, with no less than two couples in the band, but as their professional career took off, the personal side unraveled. Bassist John McVie and his keyboardist/singer wife Christine McVie filed for divorce as guitarist/vocalist Lindsey Buckingham and vocalist Stevie Nicks split, with Stevie running to drummer Mick Fleetwood, unbeknown to the rest of the band. These personal tensions fueled nearly every song on Rumours, which makes listening to the album a nearly voyeuristic experience. You're eavesdropping on the bandmates singing painful truths about each other, spreading nasty lies and rumors and wallowing in their grief, all in the presence of the person who caused the heartache. Everybody loves gawking at a good public breakup, but if that was all that it took to sell a record, Richard and Linda Thompson's Shoot Out the Lights would be multi-platinum. No, what made Rumours an unparalleled blockbuster is the quality of the music. Once again masterminded by producer/songwriter/guitarist Buckingham, Rumours is an exceptionally musical piece of work – he toughens Christine McVie and softens Nicks, adding weird turns to accessibly melodic works, which gives the universal themes of the songs haunting resonance. It also cloaks the raw emotion of the lyrics in deceptively palatable arrangements that made a tune as wrecked and tortured as "Go Your Own Way" an anthemic hit. But that's what makes Rumours such an enduring achievement – it turns private pain into something universal. Some of these songs may be too familiar, whether through their repeated exposure on FM radio or their use in presidential campaigns, but in the context of the album, each tune, each phrase regains its raw, immediate emotional power – which is why Rumours touched a nerve upon its 1977 release, and has since transcended its era to be one of the greatest, most compelling pop albums of all time.


by Stephen Thomas Erlewine, allmusic
Fleetwood Mac - Rumours (1977)


Fleetwood Mac - Rumours (1977):

Fleetwood Mac - Rumours (1977)

Tracklist:

01. Second Hand News [02:53]
02. Dreams [04:17]
03. Never Going Back Again [02:15]
04. Don't Stop [03:13]
05. Go Your Own Way [03:40]
06. Songbird [03:23]
07. The Chain [04:31]
08. You Make Loving Fun [03:33]
09. I Don't Want To Know [03:15]
10. Oh Daddy [03:57]
11. Gold Dust Woman [05:02]

Exact Audio Copy V0.99 prebeta 5 from 4. May 2009

EAC extraction logfile from 20. October 2012, 20:20

FLEETWOOD MAC / Rumours

Used drive : ASUS DRW-24B3ST Adapter: 2 ID: 0

Read mode : Secure
Utilize accurate stream : Yes
Defeat audio cache : Yes
Make use of C2 pointers : No

Read offset correction : 6
Overread into Lead-In and Lead-Out : No
Fill up missing offset samples with silence : Yes
Delete leading and trailing silent blocks : No
Null samples used in CRC calculations : Yes
Used interface : Native Win32 interface for Win NT & 2000

Used output format : User Defined Encoder
Selected bitrate : 1024 kBit/s
Quality : High
Add ID3 tag : No
Command line compressor : C:\Program Files (x86)\EAC\WV\wavpack.exe
Additional command line options : -h -hh -m %s %d


TOC of the extracted CD

Track | Start | Length | Start sector | End sector
––––––––––––––––––––––––––––-
1 | 0:00.32 | 2:53.50 | 32 | 13056
2 | 2:54.07 | 4:17.40 | 13057 | 32371
3 | 7:11.47 | 2:15.10 | 32372 | 42506
4 | 9:26.57 | 3:13.73 | 42507 | 57054
5 | 12:40.55 | 3:40.17 | 57055 | 73571
6 | 16:20.72 | 3:23.15 | 73572 | 88811
7 | 19:44.12 | 4:31.00 | 88812 | 109136
8 | 24:15.12 | 3:33.08 | 109137 | 125119
9 | 27:48.20 | 3:15.37 | 125120 | 139781
10 | 31:03.57 | 3:57.38 | 139782 | 157594
11 | 35:01.20 | 5:02.30 | 157595 | 180274


Range status and errors

Selected range

Filename G:\FLEETWOOD MAC\1977- Rumours (US 1990 Warner Bros • 3010-2)\FLEETWOOD MAC - Rumours.wav

Peak level 100.0 %
Range quality 100.0 %
Test CRC EDF64422
Copy CRC EDF64422
Copy OK

No errors occurred


AccurateRip summary

Track 1 accurately ripped (confidence 148) [72ECBDB7]
Track 2 accurately ripped (confidence 155) [4BCF18DC]
Track 3 accurately ripped (confidence 154) [E7706B4E]
Track 4 accurately ripped (confidence 154) [87E9D867]
Track 5 accurately ripped (confidence 157) [E6B5243C]
Track 6 accurately ripped (confidence 153) [BC845E8F]
Track 7 accurately ripped (confidence 153) [9F22585D]
Track 8 accurately ripped (confidence 154) [013634F1]
Track 9 accurately ripped (confidence 153) [8C98EAFB]
Track 10 accurately ripped (confidence 150) [357C2CC8]
Track 11 accurately ripped (confidence 149) [8F8CCE30]

All tracks accurately ripped

End of status report

foobar2000 1.2.9 / Dynamic Range Meter 1.1.1
log date: 2016-12-25 00:49:50

––––––––––––––––––––––––––––––––––––––––
Analyzed: FLEETWOOD MAC / Rumours
––––––––––––––––––––––––––––––––––––––––

DR Peak RMS Duration Track
––––––––––––––––––––––––––––––––––––––––
DR13 0.00 dB -15.94 dB 2:54 01-Second Hand News
DR15 0.00 dB -17.49 dB 4:18 02-Dreams
DR14 0.00 dB -17.11 dB 2:15 03-Never Going Back Again
DR13 0.00 dB -14.41 dB 3:14 04-Don't Stop
DR12 0.00 dB -13.98 dB 3:40 05-Go Your Own Way
DR14 -2.85 dB -22.39 dB 3:23 06-Songbird
DR14 0.00 dB -18.11 dB 4:31 07-The Chain
DR13 0.00 dB -16.42 dB 3:33 08-You Make Loving Fun
DR15 0.00 dB -17.15 dB 3:15 09-I Don't Want To Know
DR17 0.00 dB -20.26 dB 3:58 10-Oh Daddy
DR14 0.00 dB -16.49 dB 5:02 11-Gold Dust Woman
––––––––––––––––––––––––––––––––––––––––

Number of tracks: 11
Official DR value: DR14

Samplerate: 44100 Hz
Channels: 2
Bits per sample: 16
Bitrate: 832 kbps
Codec: FLAC

[CUETools log; Date: 25.12.2016 0:49:43; Version: 2.1.4]
Pregap length 00:00:32.
[CTDB TOCID: E1s0YYfkWAAQ8ojJyntX6s03DT8-] found.
Track | CTDB Status
1 | (274/286) Accurately ripped
2 | (274/286) Accurately ripped
3 | (280/286) Accurately ripped
4 | (276/286) Accurately ripped
5 | (276/286) Accurately ripped
6 | (275/286) Accurately ripped
7 | (275/286) Accurately ripped
8 | (272/286) Accurately ripped
9 | (273/286) Accurately ripped
10 | (272/286) Accurately ripped
11 | (264/286) Accurately ripped
[AccurateRip ID: 000f8db4-00885862-9809630b] found.
Track [ CRC | V2 ] Status
01 [72ecbdb7|978c2b21] (154+143/707) Accurately ripped
02 [4bcf18dc|35a0c480] (162+146/715) Accurately ripped
03 [e7706b4e|2bfda258] (161+149/716) Accurately ripped
04 [87e9d867|e80631c7] (161+148/716) Accurately ripped
05 [e6b5243c|e3774990] (164+148/717) Accurately ripped
06 [bc845e8f|058fe734] (160+146/709) Accurately ripped
07 [9f22585d|3a82249f] (160+149/716) Accurately ripped
08 [013634f1|2d7986c4] (161+149/713) Accurately ripped
09 [8c98eafb|a47ccd74] (160+146/710) Accurately ripped
10 [357c2cc8|c8a51bb5] (156+142/700) Accurately ripped
11 [8f8cce30|f28a6a1a] (156+143/696) Accurately ripped
Offsetted by -1716:
01 [3df65564] (040/707) Accurately ripped
02 [d0037203] (042/715) Accurately ripped
03 [e9ecee66] (041/716) Accurately ripped
04 [8ad498a4] (042/716) Accurately ripped
05 [a2216b26] (041/717) Accurately ripped
06 [5feeab82] (041/709) Accurately ripped
07 [fe210ade] (042/716) Accurately ripped
08 [d74dba49] (042/713) Accurately ripped
09 [d35996e8] (039/710) Accurately ripped
10 [8e16bb1a] (041/700) Accurately ripped
11 [ed0b1012] (040/696) Accurately ripped
Offsetted by -1146:
01 [cd491aa7] (020/707) Accurately ripped
02 [063ed745] (020/715) Accurately ripped
03 [32bfcebd] (020/716) Accurately ripped
04 [55b4e47d] (020/716) Accurately ripped
05 [e2499b3c] (020/717) Accurately ripped
06 [67b4b05b] (020/709) Accurately ripped
07 [bf9ecbae] (020/716) Accurately ripped
08 [a5d46e07] (020/713) Accurately ripped
09 [0d554c11] (020/710) Accurately ripped
10 [46a347ef] (020/700) Accurately ripped
11 [2fe9daa0] (020/696) Accurately ripped
Offsetted by -560:
01 [7105277d] (008/707) Accurately ripped
02 [e8ef7797] (008/715) Accurately ripped
03 [eee02916] (008/716) Accurately ripped
04 [d96d4c81] (008/716) Accurately ripped
05 [c6d71628] (008/717) Accurately ripped
06 [63497e8c] (007/709) Accurately ripped
07 [03a851de] (007/716) Accurately ripped
08 [8ce3b1a3] (007/713) Accurately ripped
09 [874314d8] (007/710) Accurately ripped
10 [281b85a4] (007/700) Accurately ripped
11 [d6114687] (006/696) Accurately ripped
Offsetted by -482:
01 [8e131d73] (070/707) Accurately ripped
02 [4270735c] (070/715) Accurately ripped
03 [47f89390] (070/716) Accurately ripped
04 [6cec9344] (070/716) Accurately ripped
05 [ab166876] (070/717) Accurately ripped
06 [ac006049] (068/709) Accurately ripped
07 [8a8703f8] (070/716) Accurately ripped
08 [9300470e] (069/713) Accurately ripped
09 [93bcc7e8] (070/710) Accurately ripped
10 [c2d167a5] (068/700) Accurately ripped
11 [3df17e1a] (066/696) Accurately ripped

Track Peak [ CRC32 ] [W/O NULL] [ LOG ]
– 100,0 [EDF64422] [178C624A] CRC32
01 100,0 [C29F2E74] [214C528D]
02 100,0 [CA7CFE34] [2F18BFC4]
03 100,0 [93FAECF7] [F0A7AA6D]
04 100,0 [C9C4477E] [BBA4A753]
05 100,0 [DEDE8F76] [FAB2CAE7]
06 72,0 [39C124A7] [1E1657FD]
07 100,0 [D402D2C4] [2F26AB5A]
08 100,0 [85AF2C8A] [2253A987]
09 100,0 [68AC07FF] [D83E967B]
10 100,0 [F5388E48] [21F581CF]
11 100,0 [9628ABFD] [7699ADEC]

Fleetwood Mac - Rumours (1977)

All thanks go to the original releaser

Fleetwood Mac in my Blog

Download Fleetwood Mac - Rumours (1977):