Tags
Language
Tags

Fairport Convention - Nine (1973) Expanded Remastered 2005

Posted By: Designol
Fairport Convention - Nine (1973) Expanded Remastered 2005

Fairport Convention - Nine (1973) Expanded Remastered 2005
EAC | FLAC | Image (Cue&Log) ~ 333 Mb | Mp3 (CBR320) ~ 134 Mb | Scans ~ 230 Mb
British Folk-Rock, British Folk, Country Folk | Label: Island | # 982 796-6, IMCD 310 | 00:55:42

Nine is the ninth album by the British folk rock group Fairport Convention, released in 1973. 2005 Remastered re-issue. Bonus Tracks include 'The Devil in the Kitchen' (Fiddlestix), 'George Jackson' (Live), 'Pleasure and Pain' (Live) and 'Six Days on the Road' (Live).

If you were to rate the albums released by Fairport Convention in the 1970's, the number one in popularity would no doubt be " Full House " and " Rising For The Moon " would weigh in a strong second place. But Right between these two fine releases comes a Disc called " Nine " and it's mark in the history of this band has been understated to say the least. Nine has never been recognized as what it really is…the most important release by this band during the 70's.

The depatures of Richard Thompson & Simon Nicol in 1971 made the future of Fairport seem all but doomed. It was up to Dave Swarbrick and Dave Pegg to keep the boat afloat. The eighth record " Rosie " went down like a "lead Balloon" but it got the two Dave's together with Trevor Lucas and Jerry Donahue to bring this Folk-Rock Band back from near death. The result of all this talent (not forgetting Drummer Dave Mattacks) was "Nine".

With Jerry on board the band gained a Guitarist who could hold his own along side Richard. But even better with the addition of Trevor, the band had it's best vocalist and songwriter since 1969 when Mrs. Lucas (Sandy Denny) was onboard. There were no ego clashes this time out, and the Chap's were enjoying it all again and stormed the stages of the world doing it.

There are PLENTY of great tunes on "Nine" and it all begins with "The Hexhamshire Lass" a brisk opener sung by Swarb. "Polly On The Shore" is Trevor's most memorable moment on Record and it does sound just as good 32 years later. "To Althea From Prison" features another great vocal from Swarb and some of his best fiddle ever (one of the Great Overlooked Songs of this Band's history). My favorite of this batch is Trevor's "Bring 'Em Down", in concert this song became Epic with "Cosmic Fiddles From Jupiter" often bringing things to an conclusion before the fifteen minute mark on the clock…another Great Overlooked Tune, One of the very best things here. Check out the CD "Before The Moon" for that Space-Journey..

What Jerry Donahue brings to "Nine" is a Guitar and a lot of American Country & Western overtones as featured in "The Cherokee Shuffle" and "Tokyo" instrumentals and the song "Pleasure & Pain" which sounds like a British Burritto Brothers (way different territory for our heroes) but still it works. And the closer, Trevor's "Possibly Parsons Green" put's the Rock back into Folk-Rock, another Brillant Track.

This Remaster features four Bonus Tracks and they are welcome. First up is the Austrailian single version of "Fiddlesix" with Banjo and a 50 piece orchestra (don't laugh, it's good). Bob Dylan's song "George Jackson" get's a wonderful vocal from Trevor and the backing Mandolin (Peggy?) sounds really nice as well. After some Stage-Clowning a live "Pleasure & Pain" doesn't differ from the Studio Version much but the harmonies are "Spot-On".

It all comes to a close with "Six Day's on the Road" that put's us right back in Gram Parson Land with a rousing vocal by Trevor. Sandy would be taking over the Singing on this one and leading the Band within a few more months but this version is still just "the boy's" and you can hear how much fun the are having.

That's "Nine", a real fine record and the Remaster makes it sound Brand New. With the Bonus Tracks added in the running time is 56 minutes. The Lyrics are included, and four pages of notes from Jerry telling the Story, with lot's of pictures of the band with big smiles on their faces!

An important record for Fairport Convention…FOUR STARS

Review by Philip S. Wolf, Amazon.com

Nine was never going to be more than a fair album with some great moments, but this expanded version of Fairport Convention's ninth album is superior to the original edition, the bonus tracks all adding a measure of excitement and energy that was lacking in long stretches of that original. The nine core tracks still have the same problems of inconsistency that one found on hearing them in the '70s, the group showing extraordinary virtuosity and musical instincts on folk-based tracks such as "The Hexamshire Lass" and "The Brilliancy Medley & Cherokee Shuffle," but lacking inspiration on "Polly on the Shore" and "To Althea from Prison." On the latter songs, the band supplied the music to traditional lyrics, and they simply fall flat – it isn't even that the playing is bad, so much as that the failed numbers are uniformly lugubrious in the way they're treated. Part of the problem lies with the fact that while Trevor Lucas and Jerry Donahue were good guitarists, they weren't terribly interesting – where Richard Thompson always came up with something surprising and unexpected on Fairport's songs, Lucas and Donahue stick with fairly routine pop music sounds, more in keeping with the Eagles (and the later Eagles at that) than the group that recorded Liege & Lief, Full House, and House Full. Lucas' "Bring 'Em Down" is a decent song, with some strong singing and playing by the composer and a lovely and powerful fiddle solo by Swarbrick, but it overstays its welcome and loses its cohesion – "Sloth" it is not. Too much of the album is taken up by easily forgotten contemporary-style rockers like "Big William" and throwaways such as the countrified "Pleasure and Pain"; not even the upbeat, riff-heavy "Possibly Parsons Green" makes up for this problem. [The German bonus tracks, on the other hand, counterbalance the weaker moments among the original nine songs – "The Devil in the Kitchen" is a superb virtuoso fiddle showcase, and the three live tracks that follow, recorded live in London on April 23, 1973; "Pleasure and Pain" fares somewhat better than it did as a studio cut, but the real treats here are "George Jackson" and "Six Days on the Road," which show a looser, freer (and more valid and accurate) version of this band at work. They might not be the kind of material that Fairport fans are necessarily buying the group's CDs to hear, but they liven up and pretty much punch up the proceedings so well that they're a very good reason – along with remastered sound and extensive notes by Jerry Donahue – for upgrading one's version of Nine.]

Review by Bruce Eder, Allmusic.com


Fairport Convention - Nine (1973) Expanded Remastered 2005



Trevor Lucas: acoustic guitar, lead (2, 6, 9), chorus (8), and backing vocals
Dave Swarbrick: violin, lead (1, 4, 7), verse (8) and backing vocals, viola, mandolin (7)
Jerry Donahue: acoustic and electric guitars
Dave Pegg: bass, backing vocals, mandolin (3)
Dave Mattacks: drums, percussion, bass (3), harmonium (4), clavinet (5)


Tracklist:

01. The Hexamshire Lass (02:31)
02. Polly on the Shore (04:55)
03. The Brilliancy Medley & Cherokee Shuffle (03:55)
04. To Althea From Prison (05:12)
05. Tokyo (02:53)
06. Bring 'em Down (05:57)
07. Big William (03:25)
08. Pleasure & Pain (05:02)
09. Possibly Parsons Green (04:47)

Bonus Tracks:
10. The Devil in the Kitchen (Fiddlestix) (02:51)
11. George Jackson (05:14)
12. Pleasure & Pain (05:10)
13. Six Days on the Road (03:44)


Exact Audio Copy V1.0 beta 6 from 9. April 2015

EAC extraction logfile from 5. January 2017, 14:21

Fairport Convention / Nine

Used drive : ASUS SDRW-08D2S-U Adapter: 3 ID: 0

Read mode : Secure
Utilize accurate stream : Yes
Defeat audio cache : Yes
Make use of C2 pointers : No

Read offset correction : 6
Overread into Lead-In and Lead-Out : No
Fill up missing offset samples with silence : Yes
Delete leading and trailing silent blocks : No
Null samples used in CRC calculations : Yes
Used interface : Installed external ASPI interface

Used output format : User Defined Encoder
Selected bitrate : 320 kBit/s
Quality : High
Add ID3 tag : No
Command line compressor : C:\Program Files\Exact Audio Copy 1.0 b6\Exact Audio Copy\Flac\flac.exe
Additional command line options : -V -8 -T "Date=%year%" -T "Genre=%genre%" %source%


TOC of the extracted CD

Track | Start | Length | Start sector | End sector
––––––––––––––––––––––––––––-
1 | 0:00.00 | 2:31.23 | 0 | 11347
2 | 2:31.23 | 4:55.20 | 11348 | 33492
3 | 7:26.43 | 3:55.30 | 33493 | 51147
4 | 11:21.73 | 5:12.61 | 51148 | 74608
5 | 16:34.59 | 2:53.38 | 74609 | 87621
6 | 19:28.22 | 5:57.61 | 87622 | 114457
7 | 25:26.08 | 3:25.11 | 114458 | 129843
8 | 28:51.19 | 5:02.21 | 129844 | 152514
9 | 33:53.40 | 4:47.18 | 152515 | 174057
10 | 38:40.58 | 2:51.70 | 174058 | 186952
11 | 41:32.53 | 5:14.51 | 186953 | 210553
12 | 46:47.29 | 5:10.51 | 210554 | 233854
13 | 51:58.05 | 3:44.04 | 233855 | 250658


Range status and errors

Selected range

Filename L:\Lossless Temp\Fairport Convention\1973. Fairport Convention - Nine (2005 Universal Island Records, IMCD 310 982 796-6, E.U.)\Fairport Convention - Nine.wav

Peak level 98.8 %
Extraction speed 4.3 X
Range quality 100.0 %
Test CRC 82F82167
Copy CRC 82F82167
Copy OK

No errors occurred


AccurateRip summary

Track 1 accurately ripped (confidence 19) [DCB63819] (AR v2)
Track 2 accurately ripped (confidence 19) [4D20C6A0] (AR v2)
Track 3 accurately ripped (confidence 19) [FEF8C602] (AR v2)
Track 4 accurately ripped (confidence 19) [A4DEF85E] (AR v2)
Track 5 accurately ripped (confidence 19) [1D6F89EF] (AR v2)
Track 6 accurately ripped (confidence 19) [04AC4128] (AR v2)
Track 7 accurately ripped (confidence 19) [D33B3751] (AR v2)
Track 8 accurately ripped (confidence 19) [A60E89A1] (AR v2)
Track 9 accurately ripped (confidence 18) [B3A32986] (AR v2)
Track 10 accurately ripped (confidence 18) [3D2C8E71] (AR v2)
Track 11 accurately ripped (confidence 18) [ED6A9ED3] (AR v2)
Track 12 accurately ripped (confidence 18) [C46A0026] (AR v2)
Track 13 accurately ripped (confidence 18) [C574AEB4] (AR v2)

All tracks accurately ripped

End of status report

–– CUETools DB Plugin V2.1.6

[CTDB TOCID: VDA8Z.ayVHxV7R1vhVOzA5cUl6k-] found
Submit result: VDA8Z.ayVHxV7R1vhVOzA5cUl6k- has been confirmed
Track | CTDB Status
1 | (32/32) Accurately ripped
2 | (32/32) Accurately ripped
3 | (32/32) Accurately ripped
4 | (32/32) Accurately ripped
5 | (32/32) Accurately ripped
6 | (32/32) Accurately ripped
7 | (32/32) Accurately ripped
8 | (32/32) Accurately ripped
9 | (32/32) Accurately ripped
10 | (32/32) Accurately ripped
11 | (32/32) Accurately ripped
12 | (32/32) Accurately ripped
13 | (32/32) Accurately ripped


==== Log checksum 8544AEDF8361BD16ABFEADAFF319F24CE7255C7B1237F63E0CAFA29DE8D7AF46 ====

foobar2000 1.2 / Dynamic Range Meter 1.1.1
log date: 2017-01-26 22:29:21

––––––––––––––––––––––––––––––––––––––––
Analyzed: Fairport Convention / Nine
––––––––––––––––––––––––––––––––––––––––

DR Peak RMS Duration Track
––––––––––––––––––––––––––––––––––––––––
DR11 -0.10 dB -12.69 dB 2:31 01-The Hexamshire Lass
DR12 -0.10 dB -14.18 dB 4:55 02-Polly on the Shore
DR11 -1.67 dB -15.09 dB 3:55 03-The Brilliancy Medley & Cherokee Shuffle
DR12 -0.10 dB -16.03 dB 5:13 04-To Althea From Prison
DR12 -0.10 dB -13.48 dB 2:54 05-Tokyo
DR11 -0.15 dB -15.35 dB 5:58 06-Bring 'em Down
DR13 -0.30 dB -15.38 dB 3:25 07-Big William
DR12 -0.25 dB -14.09 dB 5:02 08-Pleasure & Pain
DR12 -0.10 dB -13.58 dB 4:47 09-Possibly Parsons Green
DR11 -0.76 dB -12.96 dB 2:52 10-The Devil in the Kitchen (Fiddlestix)
DR13 -0.10 dB -17.36 dB 5:15 11-George Jackson
DR12 -0.10 dB -14.92 dB 5:11 12-Pleasure & Pain
DR11 -0.10 dB -13.29 dB 3:44 13-Six Days on the Road
––––––––––––––––––––––––––––––––––––––––

Number of tracks: 13
Official DR value: DR12

Samplerate: 44100 Hz
Channels: 2
Bits per sample: 16
Bitrate: 796 kbps
Codec: FLAC
================================================================================

Fairport Convention - Nine (1973) Expanded Remastered 2005

Fairport Convention - Nine (1973) Expanded Remastered 2005

All thanks to original releaser - Swamp Fox

More interesting music in My Blog