Tags
Language
Tags
December 2022
Su Mo Tu We Th Fr Sa
27 28 29 30 1 2 3
4 5 6 7 8 9 10
11 12 13 14 15 16 17
18 19 20 21 22 23 24
25 26 27 28 29 30 31

Eroc - Eroc 1 (1975) [Reissue 2005]

Posted By: gribovar
Eroc - Eroc 1 (1975) [Reissue 2005]

Eroc - Eroc 1 (1975) [Reissue 2005]
EAC Rip | WavPack (image+.cue+log) - 318 MB | MP3 CBR 320 kbps (LAME 3.93) - 129 MB | Covers - 348 MB
Genre: Progressive Rock, Krautrock | RAR 3% Rec. | Label: SPV/Revisited Records (SPV 49602 CD)

Eroc (Joachim Heinz Ehrig) started his solo career in 1975 while he was currently the drummer of Grobschnitt. His self titled album can be considered as a cross between Gorbschnitt's typical symphonic amazing music and electronic/synthscapes dominated by numerous original sound manipulations. Despite that he was originally recognised as a drummer, here Eroc is the man behind the machines, controlling solid essays in synth experimentations and electronic collages. His first album is an absolute must in Kraut/ electronic genre, very abstract, emotional and a mix of different moods. This album is an opponent worthy of Klaus Schulze's first realisations in space/"kosmische" electronic music.

Tracklist:
01. Begrüßung (Bonus track)
02. Kleine Eva
03. Des Zauberers Traum
04. Toni Moff Mollo
05. Die Musik Vom Ölberg
06. Chaotic Reaction (Bonus track)
07. Norderland
08. Horrorgoll
09. Sternchen
10. Teenage Love '69 (Bonus track)
11. Abendfrieden (Bonus track)
12. Ostergloingg (Bonus track)
13. Andromeda (Bonus track)

Total time: 54:54

Exact Audio Copy V1.0 beta 1 from 15. November 2010

EAC extraction logfile from 13. May 2011, 10:15

Eroc / Eroc 1

Used drive : HL-DT-STDVD-RAM GH22LP20 Adapter: 4 ID: 1

Read mode : Secure
Utilize accurate stream : Yes
Defeat audio cache : Yes
Make use of C2 pointers : No

Read offset correction : 102
Overread into Lead-In and Lead-Out : No
Fill up missing offset samples with silence : Yes
Delete leading and trailing silent blocks : No
Null samples used in CRC calculations : Yes
Used interface : Installed external ASPI interface

Used output format : Пользовательский кодировщик
Selected bitrate : 896 kBit/s
Quality : High
Add ID3 tag : No
Command line compressor : C:\Program Files (x86)\Exact Audio Copy\WAV Pack\wavpack.exe
Additional command line options : -hlmx2 %s


TOC of the extracted CD

Track | Start | Length | Start sector | End sector
––––––––––––––––––––––––––––-
1 | 0:00.00 | 1:39.56 | 0 | 7480
2 | 1:39.56 | 11:57.21 | 7481 | 61276
3 | 13:37.02 | 5:22.33 | 61277 | 85459
4 | 18:59.35 | 0:48.18 | 85460 | 89077
5 | 19:47.53 | 1:28.38 | 89078 | 95715
6 | 21:16.16 | 3:48.48 | 95716 | 112863
7 | 25:04.64 | 6:35.51 | 112864 | 142539
8 | 31:40.40 | 6:36.41 | 142540 | 172280
9 | 38:17.06 | 3:37.12 | 172281 | 188567
10 | 41:54.18 | 5:23.18 | 188568 | 212810
11 | 47:17.36 | 2:18.28 | 212811 | 223188
12 | 49:35.64 | 2:56.54 | 223189 | 236442
13 | 52:32.43 | 2:21.32 | 236443 | 247049


Range status and errors

Selected range

Filename X:\Releases RAW\Eroc 1\Eroc - Eroc 1.wav

Peak level 100.0 %
Extraction speed 0.0 X
Range quality 100.0 %
Test CRC 17AEA881
Copy CRC 17AEA881
Copy OK

No errors occurred


AccurateRip summary

Track 1 accurately ripped (confidence 4) [7C0CB62C]
Track 2 accurately ripped (confidence 4) [5D988949]
Track 3 accurately ripped (confidence 4) [BBF50995]
Track 4 accurately ripped (confidence 4) [2FE27C45]
Track 5 accurately ripped (confidence 4) [0C7738DD]
Track 6 accurately ripped (confidence 4) [9BCFDFAB]
Track 7 accurately ripped (confidence 4) [2EAF438B]
Track 8 accurately ripped (confidence 3) [00C21BBD]
Track 9 accurately ripped (confidence 4) [5C90D505]
Track 10 accurately ripped (confidence 4) [9387F294]
Track 11 accurately ripped (confidence 4) [61B82F67]
Track 12 accurately ripped (confidence 4) [89393329]
Track 13 accurately ripped (confidence 4) [A26DFBE2]

All tracks accurately ripped

End of status report

==== Log checksum A742A3789EB1B7465147F560840B318EAEB3F6A87D5D741F8304F28EB04ADE62 ====

[CUETools log; Date: 23.11.2022 14:20:52; Version: 2.1.4]
[CTDB TOCID: 1dJPsjx7Zz1WOQ4F4CHgAnZTi14-] found.
Track | CTDB Status
1 | (42/42) Accurately ripped
2 | (42/42) Accurately ripped
3 | (42/42) Accurately ripped
4 | (42/42) Accurately ripped
5 | (42/42) Accurately ripped
6 | (42/42) Accurately ripped
7 | (42/42) Accurately ripped
8 | (42/42) Accurately ripped
9 | (42/42) Accurately ripped
10 | (42/42) Accurately ripped
11 | (42/42) Accurately ripped
12 | (42/42) Accurately ripped
13 | (42/42) Accurately ripped
[AccurateRip ID: 001c9b46-0119f5d1-ba0cde0d] found.
Track [ CRC | V2 ] Status
01 [7c0cb62c|d4a2c8a2] (06+23/29) Accurately ripped
02 [5d988949|afd65e1c] (06+24/30) Accurately ripped
03 [bbf50995|ee7e7fa6] (06+24/30) Accurately ripped
04 [2fe27c45|fda994db] (06+23/29) Accurately ripped
05 [0c7738dd|8589043d] (06+24/30) Accurately ripped
06 [9bcfdfab|c60a7fed] (06+22/28) Accurately ripped
07 [2eaf438b|c8a7b82d] (06+24/30) Accurately ripped
08 [00c21bbd|b806d4d6] (05+23/28) Accurately ripped
09 [5c90d505|3a26459c] (06+23/29) Accurately ripped
10 [9387f294|605d7896] (06+23/29) Accurately ripped
11 [61b82f67|2a4a86c0] (06+24/30) Accurately ripped
12 [89393329|113c4a6e] (06+24/30) Accurately ripped
13 [a26dfbe2|b023ab5a] (06+24/30) Accurately ripped

Track Peak [ CRC32 ] [W/O NULL] [ LOG ]
– 100,0 [17AEA881] [F1BC2B26] CRC32
01 98,8 [C1965BA7] [CD312858]
02 98,8 [5819EF3D] [3876D978]
03 100,0 [1FF8B54E] [B064E049]
04 98,8 [A9CE320F] [99999079]
05 98,8 [40C75144] [4D8B008E]
06 98,8 [669B0865] [17BE16FD]
07 98,8 [36A92C78] [A515AF2E]
08 98,8 [B3B63CB1] [2E92AF1C]
09 98,8 [8E00F9B7] [9075D50B]
10 98,8 [D0F86947] [1D89F361]
11 98,8 [CEBAA397] [F34C2E95]
12 98,8 [62891CEF] [1F5D579B]
13 98,8 [3A85E38F] [BA91DC46]

Thanks to Гордый

See also:
Grobschnitt - Ballermann (1974) [Reissue 2008]
Grobschnitt - Jumbo (1975) [Reissue 2007]
Grobschnitt - Solar Music - Live (1978)
Grobschnitt - Live Wesel 1979-1 & 1979-2 (2008)