Tags
Language
Tags
March 2024
Su Mo Tu We Th Fr Sa
25 26 27 28 29 1 2
3 4 5 6 7 8 9
10 11 12 13 14 15 16
17 18 19 20 21 22 23
24 25 26 27 28 29 30
31 1 2 3 4 5 6

Emilie-Claire Barlow - The Very Thought Of You (2007) [Japanese Edition]

Posted By: Designol
Emilie-Claire Barlow - The Very Thought Of You (2007) [Japanese Edition]

Emilie-Claire Barlow - The Very Thought Of You (2007)
EAC | FLAC | Image (Cue&Log) ~ 363 Mb | Mp3 (CBR320) ~ 148 Mb | Scans included
Vocal Jazz, Standards | Label: Victor | # VICJ-61527 | Time: 01:00:05

Named after the 1934 Ray Noble-penned standard made famous by Bing Crosby, The Very Thought of You is the sixth studio album from Canadian jazz vocalist Emilie-Claire Barlow. Released in 2007, it features silky-smooth renditions of Nat King Cole's "Almost Like Being in Love," Billie Holiday 's "What a Little Moonlight Can Do," and Mama Cass' "Dream a Little Dream of Me" alongside interpretations of hits from various musicals including Guys and Dolls, Oklahoma!, and Pennies from Heaven.

Review by Jon O'Brien, Allmusic.com

Canada certainly has produced a healthy collection of females singing loungey jazz covers in the last decade (Diana Krall may well be the matriarch, with Holly Cole and Sophie Milman following behind) so the question remains… how does Emily-Claire Barlow stand out from her competition? Well, creative control, for one thing, having produced and arranged The Very Thought of You, as well as writing the arrangements and conducting the string section on her disc. The end result is a collection that is a little more musically expansive than some of her traditionalist counterparts. The title track oozes its way forward, lushly and restrained; on the second track, "Almost Like Being in Love" Barlow commandingly scats, as she does in and out of a number of tunes, including "Surrey with the Fringe on Top," that features a beguiling arrangement that's far more sexy than perky. As for what the disc does best? That answer would have to be the way the Torontonian embraces jazzy samba and bossa nova rhythms on a number of different tracks, including the playful "Pennies from Heaven," "De Conversa Em Conversa" and the sensually breathy "So Many Stars."

Review by Denise Sheppard, Amazon.ca

Emilie-Claire Barlow - The Very Thought Of You (2007) [Japanese Edition]




Tracklist:

01. The Very Thought Of You (6:38)
02. Almost Like Being In Love (3:46)
03. O Pato (The Duck) (3:35)
04. Les Yeux Ouverts (Dream A Little Dream Of Me) (4:46)
05. Pennies From Heaven (4:25)
06. What A Little Moonlight Can Do (5:22)
07. Surrey With The Fringe On Top (5:01)
08. My Time Of Day / I've Never Been In Love Before (5:59)
09. C'est Si Bon (3:52)
10. De Conversa Em Conversa (2:55)
11. The Boy Next Door (5:25)
12. So Many Stars (5:28)
13. You're Getting To Be A Habit With Me (Bonus Track) (2:54)


Exact Audio Copy V0.99 prebeta 5 from 4. May 2009

EAC extraction logfile from 6. June 2009, 21:02

Emilie-Claire Barlow / The Very Thought Of You (Japan)

Used drive : HL-DT-STDVDRAM GSA-H62N Adapter: 2 ID: 0

Read mode : Secure
Utilize accurate stream : Yes
Defeat audio cache : Yes
Make use of C2 pointers : No

Read offset correction : 667
Overread into Lead-In and Lead-Out : No
Fill up missing offset samples with silence : Yes
Delete leading and trailing silent blocks : No
Null samples used in CRC calculations : Yes
Used interface : Installed external ASPI interface

Used output format : Internal WAV Routines
Sample format : 44.100 Hz; 16 Bit; Stereo


TOC of the extracted CD

Track | Start | Length | Start sector | End sector
––––––––––––––––––––––––––––-
1 | 0:00.00 | 6:38.17 | 0 | 29866
2 | 6:38.17 | 3:45.51 | 29867 | 46792
3 | 10:23.68 | 3:35.24 | 46793 | 62941
4 | 13:59.17 | 4:46.19 | 62942 | 84410
5 | 18:45.36 | 4:25.34 | 84411 | 104319
6 | 23:10.70 | 5:22.06 | 104320 | 128475
7 | 28:33.01 | 5:00.43 | 128476 | 151018
8 | 33:33.44 | 5:58.73 | 151019 | 177941
9 | 39:32.42 | 3:51.48 | 177942 | 195314
10 | 43:24.15 | 2:54.39 | 195315 | 208403
11 | 46:18.54 | 5:25.17 | 208404 | 232795
12 | 51:43.71 | 5:27.72 | 232796 | 257392
13 | 57:11.68 | 2:53.49 | 257393 | 270416


Range status and errors

Selected range

Filename D:\Temp\The Very Thought Of You (Japan).wav

Peak level 98.8 %
Range quality 99.9 %
Copy CRC E6BEB734
Copy OK

No errors occurred


AccurateRip summary

Track 1 cannot be verified as accurate (confidence 1) [1FDECD07], AccurateRip returned [CFA0C1F5]
Track 2 cannot be verified as accurate (confidence 1) [2436F6BB], AccurateRip returned [7412D8B8]
Track 3 cannot be verified as accurate (confidence 1) [97D551DC], AccurateRip returned [07C7DA5F]
Track 4 cannot be verified as accurate (confidence 1) [2962839B], AccurateRip returned [2B82AB64]
Track 5 cannot be verified as accurate (confidence 1) [5462C635], AccurateRip returned [4173C893]
Track 6 cannot be verified as accurate (confidence 1) [6640FB5A], AccurateRip returned [93A206E7]
Track 7 cannot be verified as accurate (confidence 1) [60CD0643], AccurateRip returned [9C998B4C]
Track 8 cannot be verified as accurate (confidence 1) [1E7D9584], AccurateRip returned [447D3C08]
Track 9 cannot be verified as accurate (confidence 1) [45FD429F], AccurateRip returned [5728816A]
Track 10 cannot be verified as accurate (confidence 1) [D4A50A32], AccurateRip returned [58310094]
Track 11 cannot be verified as accurate (confidence 1) [701D9170], AccurateRip returned [7A53208B]
Track 12 cannot be verified as accurate (confidence 1) [FFCDC4E1], AccurateRip returned [53EF75C6]
Track 13 cannot be verified as accurate (confidence 1) [DAAD77C0], AccurateRip returned [593B7A78]

No tracks could be verified as accurate
You may have a different pressing from the one(s) in the database

End of status report

[CUETools log; Date: 08.10.2023 20:32:43; Version: 2.1.7]
[CTDB TOCID: eqcwK9lg2pbkkD.aSCEZ9pkspM8-] found.
Track | CTDB Status
1 | (34/34) Accurately ripped
2 | (34/34) Accurately ripped
3 | (34/34) Accurately ripped
4 | (34/34) Accurately ripped
5 | (34/34) Accurately ripped
6 | (34/34) Accurately ripped
7 | (34/34) Accurately ripped
8 | (34/34) Accurately ripped
9 | (34/34) Accurately ripped
10 | (34/34) Accurately ripped
11 | (34/34) Accurately ripped
12 | (34/34) Accurately ripped
13 | (34/34) Accurately ripped
[AccurateRip ID: 001dc18f-0127b6c8-950e150d] found.
Track [ CRC | V2 ] Status
01 [1fdecd07|232c0b30] (02+09/18) Accurately ripped
02 [2436f6bb|c83bc1e5] (02+09/18) Accurately ripped
03 [97d551dc|0e399098] (02+08/17) Accurately ripped
04 [2962839b|fc5add92] (02+09/18) Accurately ripped
05 [5462c635|3849713c] (02+09/18) Accurately ripped
06 [6640fb5a|0e2a553b] (02+09/18) Accurately ripped
07 [60cd0643|5d07b7d1] (02+09/18) Accurately ripped
08 [1e7d9584|fd3f2b99] (02+09/18) Accurately ripped
09 [45fd429f|10c1dd96] (02+09/18) Accurately ripped
10 [d4a50a32|b0490fed] (02+09/18) Accurately ripped
11 [701d9170|48708840] (02+08/17) Accurately ripped
12 [ffcdc4e1|8394dbdd] (02+09/18) Accurately ripped
13 [daad77c0|f8039504] (02+09/18) Accurately ripped
Offsetted by -664:
01 [cfa0c1f5] (00/18) No match (V2 was not tested)
02 [7412d8b8] (00/18) No match (V2 was not tested)
03 [07c7da5f] (00/17) No match (V2 was not tested)
04 [2b82ab64] (00/18) No match (V2 was not tested)
05 [4173c893] (00/18) No match (V2 was not tested)
06 [93a206e7] (00/18) No match (V2 was not tested)
07 [9c998b4c] (00/18) No match (V2 was not tested)
08 [447d3c08] (00/18) No match (V2 was not tested)
09 [5728816a] (00/18) No match (V2 was not tested)
10 [58310094] (00/18) No match (V2 was not tested)
11 [7a53208b] (00/17) No match (V2 was not tested)
12 [53ef75c6] (00/18) No match (V2 was not tested)
13 [593b7a78] (00/18) No match (V2 was not tested)

Track Peak [ CRC32 ] [W/O NULL] [ LOG ]
– 98,8 [E6BEB734] [4442BC6A] CRC32
01 98,8 [10D66143] [8991D2AA]
02 98,4 [D7C48B91] [4E5E6D32]
03 97,9 [9497CA16] [1F8554CA]
04 98,8 [CF1DD18C] [2F3EEAAD]
05 98,8 [339C4C99] [FFC8F93D]
06 98,8 [F1247D7E] [F5ADC5EC]
07 98,8 [1977D2D2] [4D2BA66F]
08 98,6 [2B920DA8] [65EB60CB]
09 98,8 [9E5E2EA1] [901A2AB2]
10 97,9 [AD60364B] [28823E2D]
11 98,8 [4E9C79B5] [CFAFCAF8]
12 98,8 [D37EFA4F] [363A0CDA]
13 98,6 [BBAC2804] [D4589EA5]

foobar2000 1.6.3 / Dynamic Range Meter 1.1.1
log date: 2023-10-08 21:38:57

––––––––––––––––––––––––––––––––––––––––
Analyzed: Emilie‐Claire Barlow / The Very Thought of You
––––––––––––––––––––––––––––––––––––––––

DR Peak RMS Duration Track
––––––––––––––––––––––––––––––––––––––––
DR7 -0.10 dB -10.41 dB 6:38 01-The Very Thought of You
DR8 -0.13 dB -9.94 dB 3:46 02-Almost Like Being in Love
DR8 -0.18 dB -9.41 dB 3:35 03-O pato (The Duck)
DR10 -0.10 dB -12.65 dB 4:46 04-Les Yeux ouverts (Dream a Little Dream of Me)
DR9 -0.10 dB -12.25 dB 4:25 05-Pennies From Heaven
DR8 -0.10 dB -11.30 dB 5:22 06-What a Little Moonlight Can Do
DR9 -0.10 dB -11.06 dB 5:01 07-Surrey With the Fringe on Top
DR9 -0.12 dB -11.80 dB 5:59 08-My Time of Day / I've Never Been in Love Before
DR9 -0.10 dB -11.46 dB 3:52 09-C'est si bon
DR11 -0.18 dB -12.36 dB 2:55 10-De conversa em conversa
DR9 -0.10 dB -11.92 dB 5:25 11-The Boy Next Door
DR9 -0.10 dB -11.98 dB 5:28 12-So Many Stars
DR10 -0.12 dB -12.00 dB 2:54 13-You're Getting to Be a Habit With Me
––––––––––––––––––––––––––––––––––––––––

Number of tracks: 13
Official DR value: DR9

Samplerate: 44100 Hz
Channels: 2
Bits per sample: 16
Bitrate: 821 kbps
Codec: FLAC
================================================================================

Emilie-Claire Barlow - The Very Thought Of You (2007) [Japanese Edition]

Emilie-Claire Barlow - The Very Thought Of You (2007) [Japanese Edition]

All thanks to original releaser

More interesting music in My Blog