Tags
Language
Tags
March 2023
Su Mo Tu We Th Fr Sa
26 27 28 1 2 3 4
5 6 7 8 9 10 11
12 13 14 15 16 17 18
19 20 21 22 23 24 25
26 27 28 29 30 31 1

VA - EBM Club Classics: Volume 1 (1998) 2CDs

Posted By: Designol
VA - EBM Club Classics: Volume 1 (1998) 2CDs

VA - EBM Club Classics: Volume 1 (1998) 2CDs
EAC | FLAC | Tracks (Cue&Log) ~ 880 Mb | Mp3 (CBR320) ~ 312 Mb | Scans ~ 66 Mb
| Label: SPV/Synthetic Symphony | # SPV 087-61952 DCD
Genre: EBM, Industrial | Time: 02:16:48

2 CD set with over two hours of mind wasting machine from the last decades. Includes Front Line Assembly, Oomph!, Die Form, Nitzer Ebb and many more.

Tracklist:

CD1:

01. Bigod 20 - The Bog (Techno Duck Mix) (05:15)
02. Leather Strip - Japanese Bodies (04:38)
03. And One - Metalhammer (05:24)
04. Oomph! - Der Neue Gott (04:41)
05. Spartak - Fuck The Army (04:16)
06. Informatics - Proximity Switch (Accidents In Paradise) (05:13)
07. Kirlian Camera - Eclipse V4 (06:34)
08. Vomito Negro - The New Force (04:00)
09. Scapa Flow - Join The Line (03:15)
10. Dance Or Die - Dance Or Die (04:07)
11. Psychic Force, The - Underpass (03:46)
12. Covenant - Stalker (Club Version) (04:59)
13. Die Form - Silent Order (05:14)
14. No More - Suicide Commando (03:21)
15. Tommi Stumpff - Massaker (02:44)

CD2:

01. Nitzer Ebb - Getting Closer (04:14)
02. The Invincible Spirit - Push! (07:05)
03. Front Line Assembly - Threshold (05:14)
04. Klinik - Moving Hands (03:55)
05. Cat Rapes Dog - Motordead (04:17)
06. S.P.O.C.K - Never Trust a Klingon (A Version) (04:24)
07. Psyche - The Crawler (02:19)
08. The Eternal Afflict - San Diego (The Tragical) (06:35)
09. Pouppee Fabrikk - Betrayal (12' mix) (04:06)
10. Poesie Noire - Come Pjutr Syntax Error (04:14)
11. Inside Treatment - Klaustrophobia (04:11)
12. Cyber-Tec Project - Let Your Body die (Original mix) (04:56)
13. Cancer Barrack - Beischlaf mit 60 kg Hackfleisch (05:04)
14. Beborn Beton - Torture (04:53)
15. Suicide Commando - See you in Hell (03:39)


Exact Audio Copy V1.3 from 2. September 2016

EAC extraction logfile from 14. December 2017, 15:50

Various Artists / EBM Club Classics Vol.1 (SPV 087-61952 DCD) CD1

Used drive : ASUS BW-16D1HT Adapter: 1 ID: 0

Read mode : Secure
Utilize accurate stream : Yes
Defeat audio cache : Yes
Make use of C2 pointers : No

Read offset correction : 6
Overread into Lead-In and Lead-Out : No
Fill up missing offset samples with silence : Yes
Delete leading and trailing silent blocks : No
Null samples used in CRC calculations : Yes
Used interface : Native Win32 interface for Win NT & 2000
Gap handling : Appended to previous track

Used output format : User Defined Encoder
Selected bitrate : 1024 kBit/s
Quality : High
Add ID3 tag : No
Command line compressor : C:\Program Files (x86)\Exact Audio Copy\FLAC\FLAC.EXE
Additional command line options : -T "COMMENT=Ripped by SergeyJD for rutracker.org" -8 -V -T "ARTIST=%artist%" -T "TITLE=%title%" -T "ALBUM=%albumtitle%" -T "DATE=%year%" -T "TRACKNUMBER=%tracknr%" -T "GENRE=%genre%" %source%


TOC of the extracted CD

Track | Start | Length | Start sector | End sector
––––––––––––––––––––––––––––-
1 | 0:00.32 | 5:15.45 | 32 | 23701
2 | 5:16.02 | 4:38.50 | 23702 | 44601
3 | 9:54.52 | 5:24.55 | 44602 | 68956
4 | 15:19.32 | 4:41.23 | 68957 | 90054
5 | 20:00.55 | 4:16.40 | 90055 | 109294
6 | 24:17.20 | 5:13.00 | 109295 | 132769
7 | 29:30.20 | 6:34.30 | 132770 | 162349
8 | 36:04.50 | 4:00.50 | 162350 | 180399
9 | 40:05.25 | 3:14.70 | 180400 | 195019
10 | 43:20.20 | 4:07.15 | 195020 | 213559
11 | 47:27.35 | 3:46.67 | 213560 | 230576
12 | 51:14.27 | 4:59.08 | 230577 | 253009
13 | 56:13.35 | 5:14.27 | 253010 | 276586
14 | 61:27.62 | 3:21.50 | 276587 | 291711
15 | 64:49.37 | 2:44.65 | 291712 | 304076


Track 1

Filename D:\РАЗДАЧИ!!!!\VA - EBM Club Classics Vol.1 - 3 (6CD, 3 x 2CD Compilation ) - 1998 - 2001\VA - EBM Club Classics Vol. 1 (SPV 087-61952 DCD)2CD - 1998\Disc 1\01 The Bog (Techno Duck Mix).wav

Pre-gap length 0:00:02.32

Peak level 99.3 %
Extraction speed 5.2 X
Track quality 100.0 %
Test CRC 4AC1F459
Copy CRC 4AC1F459
Accurately ripped (confidence 4) [98BB94C9] (AR v2)
Copy OK

Track 2

Filename D:\РАЗДАЧИ!!!!\VA - EBM Club Classics Vol.1 - 3 (6CD, 3 x 2CD Compilation ) - 1998 - 2001\VA - EBM Club Classics Vol. 1 (SPV 087-61952 DCD)2CD - 1998\Disc 1\02 Japanese Bodies.wav

Pre-gap length 0:00:01.70

Peak level 80.3 %
Extraction speed 5.6 X
Track quality 100.0 %
Test CRC 745E1CA6
Copy CRC 745E1CA6
Accurately ripped (confidence 4) [A4032C34] (AR v2)
Copy OK

Track 3

Filename D:\РАЗДАЧИ!!!!\VA - EBM Club Classics Vol.1 - 3 (6CD, 3 x 2CD Compilation ) - 1998 - 2001\VA - EBM Club Classics Vol. 1 (SPV 087-61952 DCD)2CD - 1998\Disc 1\03 Metalhammer.wav

Pre-gap length 0:00:01.50

Peak level 71.9 %
Extraction speed 6.2 X
Track quality 100.0 %
Test CRC 2E3E8AB5
Copy CRC 2E3E8AB5
Accurately ripped (confidence 4) [79E0075E] (AR v2)
Copy OK

Track 4

Filename D:\РАЗДАЧИ!!!!\VA - EBM Club Classics Vol.1 - 3 (6CD, 3 x 2CD Compilation ) - 1998 - 2001\VA - EBM Club Classics Vol. 1 (SPV 087-61952 DCD)2CD - 1998\Disc 1\04 Der Neue Gott.wav

Pre-gap length 0:00:01.50

Peak level 68.9 %
Extraction speed 6.5 X
Track quality 100.0 %
Test CRC 96C19081
Copy CRC 96C19081
Accurately ripped (confidence 4) [01CA275A] (AR v2)
Copy OK

Track 5

Filename D:\РАЗДАЧИ!!!!\VA - EBM Club Classics Vol.1 - 3 (6CD, 3 x 2CD Compilation ) - 1998 - 2001\VA - EBM Club Classics Vol. 1 (SPV 087-61952 DCD)2CD - 1998\Disc 1\05 Fuck The Army.wav

Pre-gap length 0:00:01.63

Peak level 99.0 %
Extraction speed 6.8 X
Track quality 100.0 %
Test CRC DF2EEDFB
Copy CRC DF2EEDFB
Accurately ripped (confidence 4) [CA86EF53] (AR v2)
Copy OK

Track 6

Filename D:\РАЗДАЧИ!!!!\VA - EBM Club Classics Vol.1 - 3 (6CD, 3 x 2CD Compilation ) - 1998 - 2001\VA - EBM Club Classics Vol. 1 (SPV 087-61952 DCD)2CD - 1998\Disc 1\06 Proximity Switch (Accidents In Paradise).wav

Pre-gap length 0:00:01.18

Peak level 82.7 %
Extraction speed 7.3 X
Track quality 100.0 %
Test CRC 11C823FC
Copy CRC 11C823FC
Accurately ripped (confidence 4) [B1D4798A] (AR v2)
Copy OK

Track 7

Filename D:\РАЗДАЧИ!!!!\VA - EBM Club Classics Vol.1 - 3 (6CD, 3 x 2CD Compilation ) - 1998 - 2001\VA - EBM Club Classics Vol. 1 (SPV 087-61952 DCD)2CD - 1998\Disc 1\07 Eclipse V4.wav

Pre-gap length 0:00:02.00

Peak level 79.5 %
Extraction speed 7.1 X
Track quality 99.9 %
Test CRC 8273AA9C
Copy CRC 8273AA9C
Accurately ripped (confidence 4) [0A797DFB] (AR v2)
Copy OK

Track 8

Filename D:\РАЗДАЧИ!!!!\VA - EBM Club Classics Vol.1 - 3 (6CD, 3 x 2CD Compilation ) - 1998 - 2001\VA - EBM Club Classics Vol. 1 (SPV 087-61952 DCD)2CD - 1998\Disc 1\08 The New Force.wav

Pre-gap length 0:00:01.48

Peak level 97.8 %
Extraction speed 6.6 X
Track quality 99.9 %
Test CRC 38E4092F
Copy CRC 38E4092F
Accurately ripped (confidence 4) [98012982] (AR v2)
Copy OK

Track 9

Filename D:\РАЗДАЧИ!!!!\VA - EBM Club Classics Vol.1 - 3 (6CD, 3 x 2CD Compilation ) - 1998 - 2001\VA - EBM Club Classics Vol. 1 (SPV 087-61952 DCD)2CD - 1998\Disc 1\09 Join The Line.wav

Pre-gap length 0:00:02.05

Peak level 86.2 %
Extraction speed 8.0 X
Track quality 100.0 %
Test CRC FA8BCBE3
Copy CRC FA8BCBE3
Accurately ripped (confidence 4) [D5D092B6] (AR v2)
Copy OK

Track 10

Filename D:\РАЗДАЧИ!!!!\VA - EBM Club Classics Vol.1 - 3 (6CD, 3 x 2CD Compilation ) - 1998 - 2001\VA - EBM Club Classics Vol. 1 (SPV 087-61952 DCD)2CD - 1998\Disc 1\10 Dance Or Die.wav

Pre-gap length 0:00:01.33

Peak level 85.8 %
Extraction speed 8.5 X
Track quality 100.0 %
Test CRC 16766E36
Copy CRC 16766E36
Accurately ripped (confidence 4) [D61316BB] (AR v2)
Copy OK

Track 11

Filename D:\РАЗДАЧИ!!!!\VA - EBM Club Classics Vol.1 - 3 (6CD, 3 x 2CD Compilation ) - 1998 - 2001\VA - EBM Club Classics Vol. 1 (SPV 087-61952 DCD)2CD - 1998\Disc 1\11 Underpass.wav

Pre-gap length 0:00:01.43

Peak level 95.2 %
Extraction speed 8.6 X
Track quality 100.0 %
Test CRC 32D93573
Copy CRC 32D93573
Accurately ripped (confidence 4) [F246331F] (AR v2)
Copy OK

Track 12

Filename D:\РАЗДАЧИ!!!!\VA - EBM Club Classics Vol.1 - 3 (6CD, 3 x 2CD Compilation ) - 1998 - 2001\VA - EBM Club Classics Vol. 1 (SPV 087-61952 DCD)2CD - 1998\Disc 1\12 Stalker (Club Version).wav

Pre-gap length 0:00:01.72

Peak level 89.7 %
Extraction speed 7.8 X
Track quality 99.9 %
Test CRC A5421063
Copy CRC A5421063
Accurately ripped (confidence 4) [C1038A16] (AR v2)
Copy OK

Track 13

Filename D:\РАЗДАЧИ!!!!\VA - EBM Club Classics Vol.1 - 3 (6CD, 3 x 2CD Compilation ) - 1998 - 2001\VA - EBM Club Classics Vol. 1 (SPV 087-61952 DCD)2CD - 1998\Disc 1\13 Silent Order.wav

Pre-gap length 0:00:01.68

Peak level 99.2 %
Extraction speed 8.1 X
Track quality 99.9 %
Test CRC 09973658
Copy CRC 09973658
Accurately ripped (confidence 4) [59334358] (AR v2)
Copy OK

Track 14

Filename D:\РАЗДАЧИ!!!!\VA - EBM Club Classics Vol.1 - 3 (6CD, 3 x 2CD Compilation ) - 1998 - 2001\VA - EBM Club Classics Vol. 1 (SPV 087-61952 DCD)2CD - 1998\Disc 1\14 Suicide Commando.wav

Pre-gap length 0:00:02.05

Peak level 91.0 %
Extraction speed 9.2 X
Track quality 100.0 %
Test CRC 725BF2C8
Copy CRC 725BF2C8
Accurately ripped (confidence 4) [4D89F3A0] (AR v2)
Copy OK

Track 15

Filename D:\РАЗДАЧИ!!!!\VA - EBM Club Classics Vol.1 - 3 (6CD, 3 x 2CD Compilation ) - 1998 - 2001\VA - EBM Club Classics Vol. 1 (SPV 087-61952 DCD)2CD - 1998\Disc 1\15 Massaker.wav

Pre-gap length 0:00:01.62

Peak level 82.7 %
Extraction speed 9.0 X
Track quality 100.0 %
Test CRC 6B0492EA
Copy CRC 6B0492EA
Accurately ripped (confidence 4) [34E5C1E3] (AR v2)
Copy OK


All tracks accurately ripped

No errors occurred

End of status report

–– CUETools DB Plugin V2.1.6

[CTDB TOCID: XtLrakT0HZxsWGK43UUi3c48foI-] found
Submit result: XtLrakT0HZxsWGK43UUi3c48foI- has been confirmed
Track | CTDB Status
1 | (21/24) Accurately ripped, or (1/24) differs in 468 samples @05:14:05-05:14:06
2 | (22/24) Accurately ripped
3 | (23/24) Accurately ripped
4 | (23/24) Accurately ripped
5 | (22/24) Accurately ripped
6 | (22/24) Accurately ripped
7 | (21/24) Accurately ripped, or (1/24) differs in 69 samples @06:33:12-06:33:13
8 | (23/24) Accurately ripped
9 | (22/24) Accurately ripped
10 | (22/24) Accurately ripped
11 | (22/24) Accurately ripped
12 | (20/24) Accurately ripped
13 | (23/24) Accurately ripped
14 | (23/24) Accurately ripped
15 | (20/24) Accurately ripped


==== Log checksum 5BA377031D32153E825245571EF8AFB25DDED232911A87D45804F9E30475235E ====

foobar2000 1.6.3 / Dynamic Range Meter 1.1.1
log date: 2023-01-30 17:45:03

––––––––––––––––––––––––––––––––––––––––
Analyzed: And One / EBM Club Classics Vol.1 (SPV 087-61952 DCD) CD1 (1)
Bigod 20 / EBM Club Classics Vol.1 (SPV 087-61952 DCD) CD1 (2)
Covenant / EBM Club Classics Vol.1 (SPV 087-61952 DCD) CD1 (3)
Dance or Die / EBM Club Classics Vol.1 (SPV 087-61952 DCD) CD1 (4)
Die Form / EBM Club Classics Vol.1 (SPV 087-61952 DCD) CD1 (5)
Informatics / EBM Club Classics Vol.1 (SPV 087-61952 DCD) CD1 (6)
Kirlian Camera / EBM Club Classics Vol.1 (SPV 087-61952 DCD) CD1 (7)
Leæther Strip / EBM Club Classics Vol.1 (SPV 087-61952 DCD) CD1 (8)
No More / EBM Club Classics Vol.1 (SPV 087-61952 DCD) CD1 (9)
Oomph! / EBM Club Classics Vol.1 (SPV 087-61952 DCD) CD1 (10)
Scapa Flow / EBM Club Classics Vol.1 (SPV 087-61952 DCD) CD1 (11)
Spartak / EBM Club Classics Vol.1 (SPV 087-61952 DCD) CD1 (12)
The Psychic Force / EBM Club Classics Vol.1 (SPV 087-61952 DCD) CD1 (13)
Tommi Stumpff / EBM Club Classics Vol.1 (SPV 087-61952 DCD) CD1 (14)
Vomito Negro / EBM Club Classics Vol.1 (SPV 087-61952 DCD) CD1 (15)
––––––––––––––––––––––––––––––––––––––––

DR Peak RMS Duration Track
––––––––––––––––––––––––––––––––––––––––
DR9 -2.86 dB -13.07 dB 5:25 03-Metalhammer
DR12 -0.06 dB -14.85 dB 5:16 01-The Bog (Techno Duck Mix)
DR11 -0.94 dB -13.69 dB 4:59 12-Stalker (Club Version)
DR11 -1.33 dB -13.30 dB 4:07 10-Dance Or Die
DR12 -0.07 dB -14.06 dB 5:14 13-Silent Order
DR10 -1.65 dB -13.77 dB 5:13 06-Proximity Switch (Accidents In Paradise)
DR12 -1.98 dB -16.43 dB 6:34 07-Eclipse V4
DR11 -1.90 dB -14.83 dB 4:39 02-Japanese Bodies
DR12 -0.82 dB -14.89 dB 3:22 14-Suicide Commando
DR10 -3.22 dB -14.31 dB 4:41 04-Der Neue Gott
DR14 -1.29 dB -17.14 dB 3:15 09-Join The Line
DR11 -0.08 dB -13.24 dB 4:17 05-Fuck The Army
DR14 -0.43 dB -15.41 dB 3:47 11-Underpass
DR10 -1.64 dB -13.67 dB 2:45 15-Massaker
DR11 -0.19 dB -12.74 dB 4:01 08-The New Force
––––––––––––––––––––––––––––––––––––––––

Number of tracks: 15
Official DR value: DR11

Samplerate: 44100 Hz
Channels: 2
Bits per sample: 16
Bitrate: 908 kbps
Codec: FLAC
================================================================================

Exact Audio Copy V1.3 from 2. September 2016

EAC extraction logfile from 14. December 2017, 16:38

Various Artists / EBM Club Classics Vol.1 (SPV 087-61952 DCD) CD2

Used drive : ASUS BW-16D1HT Adapter: 1 ID: 0

Read mode : Secure
Utilize accurate stream : Yes
Defeat audio cache : Yes
Make use of C2 pointers : No

Read offset correction : 6
Overread into Lead-In and Lead-Out : No
Fill up missing offset samples with silence : Yes
Delete leading and trailing silent blocks : No
Null samples used in CRC calculations : Yes
Used interface : Native Win32 interface for Win NT & 2000
Gap handling : Appended to previous track

Used output format : User Defined Encoder
Selected bitrate : 1024 kBit/s
Quality : High
Add ID3 tag : No
Command line compressor : C:\Program Files (x86)\Exact Audio Copy\FLAC\FLAC.EXE
Additional command line options : -T "COMMENT=Ripped by SergeyJD for rutracker.org" -8 -V -T "ARTIST=%artist%" -T "TITLE=%title%" -T "ALBUM=%albumtitle%" -T "DATE=%year%" -T "TRACKNUMBER=%tracknr%" -T "GENRE=%genre%" %source%


TOC of the extracted CD

Track | Start | Length | Start sector | End sector
––––––––––––––––––––––––––––-
1 | 0:00.32 | 4:14.23 | 32 | 19104
2 | 4:14.55 | 7:05.57 | 19105 | 51036
3 | 11:20.37 | 5:14.63 | 51037 | 74649
4 | 16:35.25 | 3:55.25 | 74650 | 92299
5 | 20:30.50 | 4:17.60 | 92300 | 111634
6 | 24:48.35 | 4:24.52 | 111635 | 131486
7 | 29:13.12 | 2:19.68 | 131487 | 141979
8 | 31:33.05 | 6:35.30 | 141980 | 171634
9 | 38:08.35 | 4:06.32 | 171635 | 190116
10 | 42:14.67 | 4:14.63 | 190117 | 209229
11 | 46:29.55 | 4:11.62 | 209230 | 228116
12 | 50:41.42 | 4:56.03 | 228117 | 250319
13 | 55:37.45 | 5:04.42 | 250320 | 273161
14 | 60:42.12 | 4:53.13 | 273162 | 295149
15 | 65:35.25 | 3:39.32 | 295150 | 311606


Track 1

Filename D:\РАЗДАЧИ!!!!\VA - EBM Club Classics Vol.1 - 3 (6CD, 3 x 2CD Compilation ) - 1998 - 2001\VA - EBM Club Classics Vol. 1 (SPV 087-61952 DCD)2CD - 1998\Disc 2\01 Getting Closer.wav

Pre-gap length 0:00:02.32

Peak level 100.0 %
Extraction speed 1.7 X
Track quality 99.9 %
Test CRC 862CDACB
Copy CRC 862CDACB
Accurately ripped (confidence 13) [012C566D] (AR v2)
Copy OK

Track 2

Filename D:\РАЗДАЧИ!!!!\VA - EBM Club Classics Vol.1 - 3 (6CD, 3 x 2CD Compilation ) - 1998 - 2001\VA - EBM Club Classics Vol. 1 (SPV 087-61952 DCD)2CD - 1998\Disc 2\02 Push!.wav

Pre-gap length 0:00:00.33

Peak level 98.0 %
Extraction speed 2.7 X
Track quality 100.0 %
Test CRC DAF7B605
Copy CRC DAF7B605
Accurately ripped (confidence 13) [5EF16D5F] (AR v2)
Copy OK

Track 3

Filename D:\РАЗДАЧИ!!!!\VA - EBM Club Classics Vol.1 - 3 (6CD, 3 x 2CD Compilation ) - 1998 - 2001\VA - EBM Club Classics Vol. 1 (SPV 087-61952 DCD)2CD - 1998\Disc 2\03 Threshold.wav

Pre-gap length 0:00:01.62

Peak level 80.2 %
Extraction speed 2.9 X
Track quality 100.0 %
Test CRC C82278DE
Copy CRC C82278DE
Accurately ripped (confidence 13) [F061D3D6] (AR v2)
Copy OK

Track 4

Filename D:\РАЗДАЧИ!!!!\VA - EBM Club Classics Vol.1 - 3 (6CD, 3 x 2CD Compilation ) - 1998 - 2001\VA - EBM Club Classics Vol. 1 (SPV 087-61952 DCD)2CD - 1998\Disc 2\04 Moving Hands.wav

Pre-gap length 0:00:01.63

Peak level 83.1 %
Extraction speed 3.0 X
Track quality 100.0 %
Test CRC 5B62EDDA
Copy CRC 5B62EDDA
Accurately ripped (confidence 13) [F55B7922] (AR v2)
Copy OK

Track 5

Filename D:\РАЗДАЧИ!!!!\VA - EBM Club Classics Vol.1 - 3 (6CD, 3 x 2CD Compilation ) - 1998 - 2001\VA - EBM Club Classics Vol. 1 (SPV 087-61952 DCD)2CD - 1998\Disc 2\05 Motordead.wav

Pre-gap length 0:00:01.70

Peak level 69.9 %
Extraction speed 3.2 X
Track quality 100.0 %
Test CRC CB056825
Copy CRC CB056825
Accurately ripped (confidence 13) [2DAB2E55] (AR v2)
Copy OK

Track 6

Filename D:\РАЗДАЧИ!!!!\VA - EBM Club Classics Vol.1 - 3 (6CD, 3 x 2CD Compilation ) - 1998 - 2001\VA - EBM Club Classics Vol. 1 (SPV 087-61952 DCD)2CD - 1998\Disc 2\06 Never Trust A Klingon (A Version).wav

Pre-gap length 0:00:01.70

Peak level 85.4 %
Extraction speed 3.3 X
Track quality 100.0 %
Test CRC 213D5F2B
Copy CRC 213D5F2B
Accurately ripped (confidence 13) [C90F62E4] (AR v2)
Copy OK

Track 7

Filename D:\РАЗДАЧИ!!!!\VA - EBM Club Classics Vol.1 - 3 (6CD, 3 x 2CD Compilation ) - 1998 - 2001\VA - EBM Club Classics Vol. 1 (SPV 087-61952 DCD)2CD - 1998\Disc 2\07 The Crawler.wav

Pre-gap length 0:00:01.47

Peak level 99.0 %
Extraction speed 3.1 X
Track quality 100.0 %
Test CRC CA1017C8
Copy CRC CA1017C8
Accurately ripped (confidence 13) [9A507757] (AR v2)
Copy OK

Track 8

Filename D:\РАЗДАЧИ!!!!\VA - EBM Club Classics Vol.1 - 3 (6CD, 3 x 2CD Compilation ) - 1998 - 2001\VA - EBM Club Classics Vol. 1 (SPV 087-61952 DCD)2CD - 1998\Disc 2\08 San Diego (The Tragical).wav

Pre-gap length 0:00:01.60

Peak level 85.8 %
Extraction speed 3.0 X
Track quality 99.9 %
Test CRC 79B30AE8
Copy CRC 79B30AE8
Accurately ripped (confidence 13) [6F9A4AB0] (AR v2)
Copy OK

Track 9

Filename D:\РАЗДАЧИ!!!!\VA - EBM Club Classics Vol.1 - 3 (6CD, 3 x 2CD Compilation ) - 1998 - 2001\VA - EBM Club Classics Vol. 1 (SPV 087-61952 DCD)2CD - 1998\Disc 2\09 Betrayal (12'' Mix).wav

Pre-gap length 0:00:01.63

Peak level 82.0 %
Extraction speed 3.7 X
Track quality 100.0 %
Test CRC E2453A64
Copy CRC E2453A64
Accurately ripped (confidence 13) [B28A06F1] (AR v2)
Copy OK

Track 10

Filename D:\РАЗДАЧИ!!!!\VA - EBM Club Classics Vol.1 - 3 (6CD, 3 x 2CD Compilation ) - 1998 - 2001\VA - EBM Club Classics Vol. 1 (SPV 087-61952 DCD)2CD - 1998\Disc 2\10 Come Pjutr Syntax Error.wav

Pre-gap length 0:00:01.67

Peak level 83.0 %
Extraction speed 3.9 X
Track quality 100.0 %
Test CRC 77EBBEB3
Copy CRC 77EBBEB3
Accurately ripped (confidence 13) [457B8BB8] (AR v2)
Copy OK

Track 11

Filename D:\РАЗДАЧИ!!!!\VA - EBM Club Classics Vol.1 - 3 (6CD, 3 x 2CD Compilation ) - 1998 - 2001\VA - EBM Club Classics Vol. 1 (SPV 087-61952 DCD)2CD - 1998\Disc 2\11 Klaustrophobia.wav

Pre-gap length 0:00:01.60

Peak level 95.0 %
Extraction speed 4.0 X
Track quality 100.0 %
Test CRC 27C3991D
Copy CRC 27C3991D
Accurately ripped (confidence 13) [F5F3D1F7] (AR v2)
Copy OK

Track 12

Filename D:\РАЗДАЧИ!!!!\VA - EBM Club Classics Vol.1 - 3 (6CD, 3 x 2CD Compilation ) - 1998 - 2001\VA - EBM Club Classics Vol. 1 (SPV 087-61952 DCD)2CD - 1998\Disc 2\12 Let Your Body Die (Original Mix).wav

Pre-gap length 0:00:01.72

Peak level 99.0 %
Extraction speed 4.2 X
Track quality 100.0 %
Test CRC A91BC423
Copy CRC A91BC423
Accurately ripped (confidence 13) [700480D9] (AR v2)
Copy OK

Track 13

Filename D:\РАЗДАЧИ!!!!\VA - EBM Club Classics Vol.1 - 3 (6CD, 3 x 2CD Compilation ) - 1998 - 2001\VA - EBM Club Classics Vol. 1 (SPV 087-61952 DCD)2CD - 1998\Disc 2\13 Beischlaf Mit 60kg Hackfleisch.wav

Pre-gap length 0:00:02.03

Peak level 100.0 %
Extraction speed 4.4 X
Track quality 100.0 %
Test CRC 4F2B93BA
Copy CRC 4F2B93BA
Accurately ripped (confidence 13) [230CDDD7] (AR v2)
Copy OK

Track 14

Filename D:\РАЗДАЧИ!!!!\VA - EBM Club Classics Vol.1 - 3 (6CD, 3 x 2CD Compilation ) - 1998 - 2001\VA - EBM Club Classics Vol. 1 (SPV 087-61952 DCD)2CD - 1998\Disc 2\14 Torture.wav

Pre-gap length 0:00:01.60

Peak level 89.4 %
Extraction speed 4.5 X
Track quality 100.0 %
Test CRC 27E27878
Copy CRC 27E27878
Accurately ripped (confidence 13) [158EAC2A] (AR v2)
Copy OK

Track 15

Filename D:\РАЗДАЧИ!!!!\VA - EBM Club Classics Vol.1 - 3 (6CD, 3 x 2CD Compilation ) - 1998 - 2001\VA - EBM Club Classics Vol. 1 (SPV 087-61952 DCD)2CD - 1998\Disc 2\15 See You In Hell!.wav

Pre-gap length 0:00:02.08

Peak level 64.5 %
Extraction speed 4.4 X
Track quality 100.0 %
Test CRC A047AF6A
Copy CRC A047AF6A
Accurately ripped (confidence 13) [279FABFA] (AR v2)
Copy OK


All tracks accurately ripped

No errors occurred

End of status report

–– CUETools DB Plugin V2.1.6

[CTDB TOCID: 5VvfNdieocy0a7KX6qq5pv3wEyw-] found
Submit result: 5VvfNdieocy0a7KX6qq5pv3wEyw- has been confirmed
Track | CTDB Status
1 | (21/21) Accurately ripped
2 | (20/21) Accurately ripped
3 | (21/21) Accurately ripped
4 | (21/21) Accurately ripped
5 | (21/21) Accurately ripped
6 | (21/21) Accurately ripped
7 | (21/21) Accurately ripped
8 | (20/21) Accurately ripped
9 | (19/21) Accurately ripped
10 | (21/21) Accurately ripped
11 | (21/21) Accurately ripped
12 | (20/21) Accurately ripped
13 | (21/21) Accurately ripped
14 | (21/21) Accurately ripped
15 | (20/21) Accurately ripped


==== Log checksum EE4FB594CC528FA164DA6247EABEBA87BF4CC92CD758971B7D0ABD3550969FF4 ====

foobar2000 1.6.3 / Dynamic Range Meter 1.1.1
log date: 2023-01-30 17:45:27

––––––––––––––––––––––––––––––––––––––––
Analyzed: Beborn Beton / EBM Club Classics Vol.1 (SPV 087-61952 DCD) CD2 (1)
Cancer Barrack / EBM Club Classics Vol.1 (SPV 087-61952 DCD) CD2 (2)
Cat Rapes Dog / EBM Club Classics Vol.1 (SPV 087-61952 DCD) CD2 (3)
Cyber-Tec Project / EBM Club Classics Vol.1 (SPV 087-61952 DCD) CD2 (4)
Front Line Assembly / EBM Club Classics Vol.1 (SPV 087-61952 DCD) CD2 (5)
Inside Treatment / EBM Club Classics Vol.1 (SPV 087-61952 DCD) CD2 (6)
Klinik / EBM Club Classics Vol.1 (SPV 087-61952 DCD) CD2 (7)
Nitzer Ebb / EBM Club Classics Vol.1 (SPV 087-61952 DCD) CD2 (8)
Poesie Noire / EBM Club Classics Vol.1 (SPV 087-61952 DCD) CD2 (9)
Pouppee Fabrikk / EBM Club Classics Vol.1 (SPV 087-61952 DCD) CD2 (10)
Psyche / EBM Club Classics Vol.1 (SPV 087-61952 DCD) CD2 (11)
S.P.O.C.K / EBM Club Classics Vol.1 (SPV 087-61952 DCD) CD2 (12)
Suicide Commando / EBM Club Classics Vol.1 (SPV 087-61952 DCD) CD2 (13)
The Eternal Afflict / EBM Club Classics Vol.1 (SPV 087-61952 DCD) CD2 (14)
The Invincible Spirit / EBM Club Classics Vol.1 (SPV 087-61952 DCD) CD2 (15)
––––––––––––––––––––––––––––––––––––––––

DR Peak RMS Duration Track
––––––––––––––––––––––––––––––––––––––––
DR11 -0.97 dB -14.30 dB 4:53 14-Torture
DR11 0.00 dB -11.90 dB 5:05 13-Beischlaf Mit 60kg Hackfleisch
DR7 -3.11 dB -12.50 dB 4:18 05-Motordead
DR13 -0.09 dB -16.29 dB 4:56 12-Let Your Body Die (Original Mix)
DR11 -1.92 dB -15.04 dB 5:15 03-Threshold
DR11 -0.44 dB -14.54 dB 4:12 11-Klaustrophobia
DR13 -1.61 dB -15.10 dB 3:55 04-Moving Hands
DR12 0.00 dB -13.41 dB 4:14 01-Getting Closer
DR11 -1.61 dB -15.34 dB 4:15 10-Come Pjutr Syntax Error
DR12 -1.72 dB -14.94 dB 4:06 09-Betrayal (12' Mix)
DR11 -0.08 dB -12.61 dB 2:20 07-The Crawler
DR11 -1.37 dB -13.36 dB 4:25 06-Never Trust A Klingon (A Version)
DR8 -3.80 dB -13.67 dB 3:39 15-See You In Hell!
DR9 -1.32 dB -12.47 dB 6:35 08-San Diego (The Tragical)
DR12 -0.17 dB -14.40 dB 7:06 02-Push!
––––––––––––––––––––––––––––––––––––––––

Number of tracks: 15
Official DR value: DR11

Samplerate: 44100 Hz
Channels: 2
Bits per sample: 16
Bitrate: 832 kbps
Codec: FLAC
================================================================================

VA - EBM Club Classics: Volume 1 (1998) 2CDs

VA - EBM Club Classics: Volume 1 (1998) 2CDs

All thanks to original releaser

More interesting music in My Blog