Disarray - Bleed (1996, MCD)

Posted By: Necromandus
Disarray - Bleed (1996, MCD)

Disarray - Bleed (1996, MCD)
EAC Rip | FLAC, IMG+CUE+LOG | 150 MB | MP3 CBR 320 Kbps | 50 MB | Complete HQ Scans | PNG -> 20 MB
Thrash/Southern Metal | Label: Inner V.O.I.D. #NRVD002 | RAR 3% Rec. | Nitroflare.com


The metalheads in Disarray first came together in 1993, when singer/guitarist Chuck Bonnett decided he wanted to chase his rock musician dreams. He formed lineup after lineup, releasing home-recorded albums like Widespread Human Disaster until he finally signed to Eclipse Records in the late '90s. This is second demo.

~ 9/10
Tracklist :

1. Nailed Shut - 4:03
2. Future Lost - 3:55
3. Bleed - 3:43
4. Caught In The Chains - 4:42
5. Rust - 3:01

Exact Audio Copy V1.1 from 23. June 2015

EAC extraction logfile from 5. October 2016, 12:57

Disarray / Bleed (MCD)

Used drive : TSSTcorpCDDVDW SH-S223F Adapter: 1 ID: 0

Read mode : Secure
Utilize accurate stream : Yes
Defeat audio cache : Yes
Make use of C2 pointers : No

Read offset correction : 6
Overread into Lead-In and Lead-Out : No
Fill up missing offset samples with silence : Yes
Delete leading and trailing silent blocks : No
Null samples used in CRC calculations : Yes
Used interface : Native Win32 interface for Win NT & 2000

Used output format : Internal WAV Routines
Sample format : 44.100 Hz; 16 Bit; Stereo


TOC of the extracted CD

Track | Start | Length | Start sector | End sector
––––––––––––––––––––––––––––-
1 | 0:00.02 | 4:03.18 | 2 | 18244
2 | 4:03.20 | 3:55.34 | 18245 | 35903
3 | 7:58.54 | 3:43.30 | 35904 | 52658
4 | 11:42.09 | 4:41.42 | 52659 | 73775
5 | 16:23.51 | 3:01.14 | 73776 | 87364


Range status and errors

Selected range

Filename Z:\by Necromandus [MeTaLMaDNeSS.TeaM]\Disarray - Bleed (MCD).wav

Peak level 100.0 %
Extraction speed 2.3 X
Range quality 100.0 %
Test CRC D3B38A06
Copy CRC D3B38A06
Copy OK

No errors occurred


AccurateRip summary

Track 1 not present in database
Track 2 not present in database
Track 3 not present in database
Track 4 not present in database
Track 5 not present in database

None of the tracks are present in the AccurateRip database

End of status report

–– CUETools DB Plugin V2.1.6

[CTDB TOCID: ghv5mVFkm6kv7htm6qpmsSyEAro-] found
Submit result: ghv5mVFkm6kv7htm6qpmsSyEAro- has been confirmed
Track | CTDB Status
1 | (1/1) Accurately ripped
2 | (1/1) Accurately ripped
3 | (1/1) Accurately ripped
4 | (1/1) Accurately ripped
5 | (1/1) Accurately ripped


==== Log checksum 3DE9FF8CAC51D891D157459174F6B966D48EC1330C4317C9E515005F0905C0A6 ====

• Chuck Bonnett - Vocals, Guitars
• Jim Johnson - Guitars
• Butch Cook - Bass
• Shane Harmon - Drums
Lossless (FLAC)* + All Covers (PNG)
http://nitroflare.com/view/17140209D005A39/DIS1996BLDLOS.rar

Lossy HQ (320 Kbps CBR)
http://nitroflare.com/view/9E2CBABDEF9AD16/DIS1996BLDMP3.rar

* Original CD -> EAC image, embedded cuesheet & more, foobar2000 ready, etc.
(all CUEs, LOGs and other technical info includes in the internal "CD_Support" archive).

Please, do not write these links at any web pages. Enjoy & keep the files alive!