Subcategories

Denise Lasalle - A Lady In The Street (1983)

Posted By: JET 1
Denise Lasalle - A Lady In The Street (1983)

Denise Lasalle - A Lady In The Street (1983)
EAC Rip | FLAC (Tracks) +CUE, LOG | 282 MB | Covers Included
Soul / Funk | Label: Malaco | Catalog Number: MCD 7412

Denise Allen (born July 16, 1939),known by the stage name Denise LaSalle, is an American blues and R&B/soul singer, songwriter, and record producer who, since the death of Koko Taylor, has been recognized as the "Queen of the Blues"

Review by Ron Wynn -allmusic.com
The title track was among LaSalle's best Malaco tunes, a stomping, urgently sung, sassy bit that walked the line between confrontation, invitation, and remorse. The other tunes weren't quite as inspired, but were equally well performed. Few performers have ever staked out an area and remained loyal to it like LaSalle, who's been doing country/blues soul since the early '70s and seldom strayed from the path, despite numerous trends and changes on the black music scene. Some would call that suicidal; others would say it's commendable.

Exact Audio Copy V1.0 beta 3 from 29. August 2011

EAC extraction logfile from 4. December 2014, 16:37

Denise LaSalle / A Lady In The Street

Used drive : ATAPI DVD A DH16A6L-C Adapter: 2 ID: 0

Read mode : Secure
Utilize accurate stream : Yes
Defeat audio cache : Yes
Make use of C2 pointers : No

Read offset correction : 6
Overread into Lead-In and Lead-Out : No
Fill up missing offset samples with silence : Yes
Delete leading and trailing silent blocks : No
Null samples used in CRC calculations : Yes
Used interface : Native Win32 interface for Win NT & 2000
Gap handling : Appended to previous track

Used output format : User Defined Encoder
Selected bitrate : 1024 kBit/s
Quality : High
Add ID3 tag : No
Command line compressor : C:\Program Files\FLAC\flac.exe
Additional command line options : -8 -V -T "ARTIST=%artist%" -T "TITLE=%title%" -T "ALBUM=%albumtitle%" -T "DATE=%year%" -T "TRACKNUMBER=%tracknr%" -T "GENRE=%genre%" -T "PERFORMER=%albuminterpret%" -T "COMPOSER=%composer%" %haslyrics%–tag-from-file=LYRICS="%lyricsfile%"%haslyrics% -T "ALBUMARTIST=%albumartist%" -T "DISCNUMBER=%cdnumber%" -T "TOTALDISCS=%totalcds%" -T "TOTALTRACKS=%numtracks%" -T "COMMENT=%comment%" %source% -o %dest%


TOC of the extracted CD

Track | Start | Length | Start sector | End sector
––––––––––––––––––––––––––––-
1 | 0:00.00 | 3:43.60 | 0 | 16784
2 | 3:43.60 | 4:30.35 | 16785 | 37069
3 | 8:14.20 | 4:43.50 | 37070 | 58344
4 | 12:57.70 | 4:24.70 | 58345 | 78214
5 | 17:22.65 | 6:16.02 | 78215 | 106416
6 | 23:38.67 | 3:55.18 | 106417 | 124059
7 | 27:34.10 | 4:05.17 | 124060 | 142451
8 | 31:39.27 | 3:45.53 | 142452 | 159379


Track 1

Filename F:\0\!!!!!POST!!!!\Denise Lasalle - A Lady In The Street (1983)\01 - Lady In The Street.wav

Pre-gap length 0:00:02.00

Peak level 99.9 %
Extraction speed 3.6 X
Track quality 100.0 %
Test CRC 1C1DC36A
Copy CRC 1C1DC36A
Track not present in AccurateRip database
Copy OK

Track 2

Filename F:\0\!!!!!POST!!!!\Denise Lasalle - A Lady In The Street (1983)\02 - This Bell Was Made For Ringing.wav

Pre-gap length 0:00:02.15

Peak level 99.9 %
Extraction speed 4.1 X
Track quality 100.0 %
Test CRC 135D67CB
Copy CRC 135D67CB
Track not present in AccurateRip database
Copy OK

Track 3

Filename F:\0\!!!!!POST!!!!\Denise Lasalle - A Lady In The Street (1983)\03 - Don't Mess With My Man.wav

Peak level 99.9 %
Extraction speed 4.6 X
Track quality 100.0 %
Test CRC D6C94F91
Copy CRC D6C94F91
Track not present in AccurateRip database
Copy OK

Track 4

Filename F:\0\!!!!!POST!!!!\Denise Lasalle - A Lady In The Street (1983)\04 - Lay Me Down.wav

Pre-gap length 0:00:02.53

Peak level 99.5 %
Extraction speed 4.0 X
Track quality 99.9 %
Test CRC 2C0AFC65
Copy CRC 2C0AFC65
Track not present in AccurateRip database
Copy OK

Track 5

Filename F:\0\!!!!!POST!!!!\Denise Lasalle - A Lady In The Street (1983)\05 - Down Home Blues.wav

Pre-gap length 0:00:02.33

Peak level 100.0 %
Extraction speed 5.4 X
Track quality 100.0 %
Test CRC ED921676
Copy CRC ED921676
Track not present in AccurateRip database
Copy OK

Track 6

Filename F:\0\!!!!!POST!!!!\Denise Lasalle - A Lady In The Street (1983)\06 - I Was Not The Best Woman.wav

Pre-gap length 0:00:02.32

Peak level 98.9 %
Extraction speed 5.5 X
Track quality 100.0 %
Test CRC EED3E834
Copy CRC EED3E834
Track not present in AccurateRip database
Copy OK

Track 7

Filename F:\0\!!!!!POST!!!!\Denise Lasalle - A Lady In The Street (1983)\07 - Come To Bed.wav

Pre-gap length 0:00:02.65

Peak level 98.8 %
Extraction speed 5.7 X
Track quality 100.0 %
Test CRC 84DB9BA9
Copy CRC 84DB9BA9
Track not present in AccurateRip database
Copy OK

Track 8

Filename F:\0\!!!!!POST!!!!\Denise Lasalle - A Lady In The Street (1983)\08 - I Was Tellin' Him About You.wav

Pre-gap length 0:00:02.42

Peak level 99.7 %
Extraction speed 5.9 X
Track quality 100.0 %
Test CRC FEF9A535
Copy CRC FEF9A535
Track not present in AccurateRip database
Copy OK


None of the tracks are present in the AccurateRip database

No errors occurred

End of status report

==== Log checksum 5303EB907F9CEFAEE95A22D5E06DD5127831659042CDE7565CC86AB9A0AEF4BF ====


Tracklist:
1. A Lady in the Street
2. This Bell Was Made for Ringing
3. Don't Mess With My Man
4. Lay Me Down
5. Down Home Blues
6. I Was Not the Best Woman
7. Come To Bed
8. I Was Telling Him About You