Tags
Language
Tags
November 2022
Su Mo Tu We Th Fr Sa
30 31 1 2 3 4 5
6 7 8 9 10 11 12
13 14 15 16 17 18 19
20 21 22 23 24 25 26
27 28 29 30 1 2 3

Dauner // Dauner - Dauner // Dauner (2013)

Posted By: popsakov
Dauner // Dauner - Dauner // Dauner (2013)

Dauner // Dauner - Dauner // Dauner (2013)
EAC Rip | FLAC (Img) + Cue + Log ~ 263 Mb | MP3 CBR320 ~ 107 Mb
Full Scans ~ 127 Mb | 00:44:13 | RAR 5% Recovery
Fusion, Contemporary Jazz | Connector Records #59921-2

Wolfgang Dauner's creativity is varied and, more than anything, unbroken. With this CD be has made get another important accent in his career. Wolfgang Dauner's touch is multi-faceted and has many realms of feeling. They range from the nervous touch ofa Hampton Hawes or Huss Freeman to the finesse of one such as Bill Evans. Many artists such as Elvin Jones, Albert Mangelsdorff and Eddie Gomez, with whom he plaged in a combo for years, have contributed towards his musical profile. I am always glad when I have the honorto play music with him once more. Emotional sound patterns, such as »Raga lntro« or »Hypnos«, document the broad range of expression which characterizes these recordings. lndian and contemporary elements also contribute towards making the whole thing into that one Big Entity. The final number is a duet which Wolfgang recorded years ago with his long-time friend and partner Eberhard Weber: >>Zwiegesprach<< (Dialog), a piece that oscillates between brilliance and melodiousness, taking the listener off to a different world. A fine finish to a CD that will be a delight to listen to again and again. ~ Prof. Manfred Schoof.
Dauner // Dauner - Dauner // Dauner (2013)

Dauner // Dauner - Dauner // Dauner (2013)


***************

Dauner // Dauner - Dauner // Dauner (2013)

Dauner // Dauner - Dauner // Dauner (2013)

Track List:

01. 2012+1 [5:39]
02. Elf Notizen [5:48]
03. Raga Intro [1:49]
04. Ragayagaprija [5:55]
05. Hypnos [5:18]
06. Echos Stimme [4:12]
07. Who Let The Dog Out [2:04]
08. Mister Minky [4:00]
09. Do not Change [4:12]
10. Zwiegespraech [5:16]

Personnel:
Bass – Dieter Ilg (tracks: 1 to 4, 6), Eberhard Weber (tracks: 10)
Drums, Percussion – Flo Dauner
Piano, Keyboards, Electric Piano [Fender Rhodes], Synthesizer [EMS Synthi 100], Synthesizer [Oberheim 4 Voice] – Wolfgang Dauner
Synthesizer [Modular, Moog] – Phil Kullmann (tracks: 8)
Producer – Detlef Engelhard, Wolfgang Dauner

Exact Audio Copy V1.1 from 23. June 2015

Отчёт EAC об извлечении, выполненном 27. июля 2017, 13:14

Dauner - Dauner / Dauner - Dauner

Дисковод: ASUS DRW-24B3ST Adapter: 0 ID: 0

Режим чтения : Достоверность
Использование точного потока : Да
Отключение кэша аудио : Да
Использование указателей C2 : Нет

Коррекция смещения при чтении : 6
Способность читать области Lead-in и Lead-out : Нет
Заполнение пропущенных сэмплов тишиной : Да
Удаление блоков с тишиной в начале и конце : Нет
При вычислениях CRC использовались нулевые сэмплы : Да
Интерфейс : Установленный внешний ASPI-интерфейс

Выходной формат : Пользовательский кодировщик
Выбранный битрейт : 1024 kBit/s
Качество : Высокий
Добавление ID3-тега : Нет
Утилита сжатия : C:\Program Files (x86)\Exact Audio Copy\Flac\flac.exe
Дополнительные параметры : -V -8 -T "Date=%year%" -T "Genre=%genre%" %source%


TOC извлечённого CD

Трек | Старт | Длительность | Начальный сектор | Конечный сектор
––––––––––––––––––––––––––––––––––-
1 | 0:00.00 | 5:39.11 | 0 | 25435
2 | 5:39.11 | 5:47.60 | 25436 | 51520
3 | 11:26.71 | 1:48.50 | 51521 | 59670
4 | 13:15.46 | 5:55.28 | 59671 | 86323
5 | 19:10.74 | 5:18.01 | 86324 | 110174
6 | 24:29.00 | 4:12.27 | 110175 | 129101
7 | 28:41.27 | 2:04.15 | 129102 | 138416
8 | 30:45.42 | 3:59.65 | 138417 | 156406
9 | 34:45.32 | 4:11.45 | 156407 | 175276
10 | 38:57.02 | 5:16.29 | 175277 | 199005


Характеристики диапазона извлечения и сообщения об ошибках

Выбранный диапазон

Имя файла E:\Torrents\Dauner - Dauner - 2013 - Dauner - Dauner\Dauner - Dauner - Dauner - Dauner.wav

Пиковый уровень 97.9 %
Скорость извлечения 3.0 X
Качество диапазона 100.0 %
CRC теста DDA449BC
CRC копии DDA449BC
Копирование… OK

Ошибок не произошло


AccurateRip: сводка

Трек 1 : извлечено точно (доверие 9) [8698F5F5] (AR v2)
Трек 2 : извлечено точно (доверие 9) [36DD60AD] (AR v2)
Трек 3 : извлечено точно (доверие 9) [22532C1B] (AR v2)
Трек 4 : извлечено точно (доверие 9) [5A02E0CE] (AR v2)
Трек 5 : извлечено точно (доверие 10) [8C88B8B6] (AR v2)
Трек 6 : извлечено точно (доверие 10) [316D161A] (AR v2)
Трек 7 : извлечено точно (доверие 10) [B338C6EB] (AR v2)
Трек 8 : извлечено точно (доверие 10) [F0982516] (AR v2)
Трек 9 : извлечено точно (доверие 9) [01D6EA72] (AR v2)
Трек 10 : извлечено точно (доверие 10) [165CB58F] (AR v2)

Все треки извлечены точно

Конец отчёта

==== Контрольная сумма отчёта BCF7E819A757E4813F3BEEBEB38D8274B6A66A5161C964A9F64B50DEC1F146FA ====

[CUETools log; Date: 27.07.2017 16:14:56; Version: 2.1.5]
[CTDB TOCID: TVh58insyHdh3WDb13R3iH81b_c-] found.
Track | CTDB Status
1 | (32/33) Accurately ripped
2 | (32/33) Accurately ripped
3 | (32/33) Accurately ripped
4 | (32/33) Accurately ripped
5 | (32/33) Accurately ripped
6 | (32/33) Accurately ripped
7 | (32/33) Accurately ripped
8 | (32/33) Accurately ripped
9 | (32/33) Accurately ripped
10 | (31/33) Accurately ripped
[AccurateRip ID: 00114348-0087c33b-900a5d0a] found.
Track [ CRC | V2 ] Status
01 [6027888f|8698f5f5] (02+09/11) Accurately ripped
02 [42eb7f54|36dd60ad] (02+09/11) Accurately ripped
03 [82b1b57e|22532c1b] (02+09/11) Accurately ripped
04 [2601ce69|5a02e0ce] (02+09/11) Accurately ripped
05 [a4b67d80|8c88b8b6] (02+10/12) Accurately ripped
06 [92defbe7|316d161a] (02+10/12) Accurately ripped
07 [e2ece4a4|b338c6eb] (02+10/12) Accurately ripped
08 [2005c382|f0982516] (02+10/12) Accurately ripped
09 [854237a9|01d6ea72] (02+09/11) Accurately ripped
10 [59dcaa95|165cb58f] (02+10/12) Accurately ripped

Track Peak [ CRC32 ] [W/O NULL] [ LOG ]
– 97,9 [DDA449BC] [66998D19] CRC32
01 97,3 [5C4C7F23] [C662BD62]
02 97,5 [74A82334] [FB357CA8]
03 44,8 [4A0BF94E] [19CAB88D]
04 97,4 [5FF2F8B5] [1AC08B41]
05 97,3 [A57FFC31] [61A1E7E7]
06 97,9 [947E3DBE] [D74EFF81]
07 97,3 [3938FF09] [202B7FFB]
08 97,6 [7E918ED1] [0BCD2E6E]
09 97,3 [1B60EF04] [C09405D3]
10 72,8 [3E02F53E] [96D3A350]

Dauner // Dauner - Dauner // Dauner (2013)


All thanks go to Копысов

>>> My Blog <<<

DOWNLOAD: