Tags
Language
Tags

Duke Ellington and His Orchestra - Latin American Suite (1970 / 1991)

Posted By: Samtro
Duke Ellington and His Orchestra - Latin American Suite (1970 / 1991)

Duke Ellington and His Orchestra - Latin American Suite (1970)
EAC RIP | FLAC(tracks)+CUE+LOG / 255 MB | Full Covers | MP3 - CBR 320 Kbps / 93 MB
Jazz, Latin Jazz, Big Band
Original Release Date: Jan 7, 1970 | Remastered Audio CD: Jul 01, 1991 | Label: Original Jazz Classics (OJC20 469-2)

Duke Ellington always absorbed influences from the music he heard as he toured the world, and The Latin American Suite is no exception. Written during his first tour of Central and South America in 1968, Ellington premiered several of the pieces during concerts in the Southern hemisphere, though he didn't record it until returning to the U.S., with one piece ("Tina") being recorded separately over a year after the other tracks. "Oclupaca" is an exotic opener showcasing Paul Gonsalves' robust tenor, while Ellington gets in an Oriental kick during his driving blues "Chico Cuadradino" (jointly written with his son Mercer). Ellington is in a jaunty mood in his bossa nova "Eque," which spotlights both Johnny Hodges and Gonsalves. The infectious "Latin American Sunshine" is buoyed by Harry Carney's sonorous baritone sax and trombonist Lawrence Brown's solo. It's a shame that Ellington chose not to keep any of these originals in his repertoire once work was completed on this album.

Tracklist:

01. Oclupaca (4:23)
02. Chico Cuadradino (5:05)
03. Eque (3:34)
04. Tina (4:37)
05. The Sleeping Lady and The Giant Who Watches Over Her (7:28)
06. Latin American Sunshine (6:56)
07. Brasilliance (5:04)


Personnel:

Duke Ellington & His Orchestra - Primary Artist
Paul Gonsalves - Tenor Saxophone
Johnny Hodges - Saxophone
Lawrence Brown - Trombone
Harry Carney - Baritone Saxophone
and Other

Technical Credits:
Duke Ellington - Composer, Producer
Buster Cooper - Contributor
Stanley Dance - Liner Notes

Principally recorded in New York, New York in 1968. Originally released on Fantasy (8419).
Digitally remastered by Phil De Lancie (1990, Fantasy Studios).



EAC extraction logfile from 18. June 2006, 23:08 for CD
Duke Ellington / Latin American Suite

Used drive : SAMSUNG CDRW/DVD SN-324B Adapter: 1 ID: 0
Read mode : Secure with NO C2, accurate stream, disable cache
Read offset correction : 120
Overread into Lead-In and Lead-Out : No

Used output format : Internal WAV Routines
44.100 Hz; 16 Bit; Stereo

Other options :
Fill up missing offset samples with silence : Yes
Delete leading and trailing silent blocks : No
Native Win32 interface for Win NT & 2000


Track 1
Filename C:\Documents and Settings\Laura\Desktop\Downloads\Duke Ellington - Latin American Suite (1970) [Flac]\01 - Oclupaca.wav

Pre-gap length 0:00:02.00

Peak level 96.6 %
Track quality 100.0 %
Test CRC FB1796AB
Copy CRC FB1796AB
Copy OK

Track 2
Filename C:\Documents and Settings\Laura\Desktop\Downloads\Duke Ellington - Latin American Suite (1970) [Flac]\02 - Chico Cuadradino.wav

Pre-gap length 0:00:02.00

Peak level 96.4 %
Track quality 99.9 %
Test CRC 9321F3A9
Copy CRC 9321F3A9
Copy OK

Track 3
Filename C:\Documents and Settings\Laura\Desktop\Downloads\Duke Ellington - Latin American Suite (1970) [Flac]\03 - Eque.wav

Pre-gap length 0:00:02.00

Peak level 96.6 %
Track quality 99.9 %
Test CRC 6ACD1B6F
Copy CRC 6ACD1B6F
Copy OK

Track 4
Filename C:\Documents and Settings\Laura\Desktop\Downloads\Duke Ellington - Latin American Suite (1970) [Flac]\04 - Tina.wav

Pre-gap length 0:00:02.00

Peak level 99.4 %
Track quality 99.9 %
Test CRC 7F548316
Copy CRC 7F548316
Copy OK

Track 5
Filename C:\Documents and Settings\Laura\Desktop\Downloads\Duke Ellington - Latin American Suite (1970) [Flac]\05 - The Sleeping Lady and The Giant Who Watches Over Her.wav

Pre-gap length 0:00:02.00

Peak level 97.0 %
Track quality 100.0 %
Test CRC 2F5004A8
Copy CRC 2F5004A8
Copy OK

Track 6
Filename C:\Documents and Settings\Laura\Desktop\Downloads\Duke Ellington - Latin American Suite (1970) [Flac]\06 - Latin American Sunshine.wav

Pre-gap length 0:00:02.00

Peak level 99.4 %
Track quality 100.0 %
Test CRC E9BDBBC6
Copy CRC E9BDBBC6
Copy OK

Track 7
Filename C:\Documents and Settings\Laura\Desktop\Downloads\Duke Ellington - Latin American Suite (1970) [Flac]\07 - Brasilliance.wav

Pre-gap length 0:00:02.00

Peak level 95.4 %
Track quality 99.9 %
Test CRC D25E84A9
Copy CRC D25E84A9
Copy OK

No errors occured


End of status report

Duke Ellington and His Orchestra - Latin American Suite (1970 / 1991)

Letitbit:
FLAC: Download

MP3:
Download

FileSonic:
FLAC: Download




See Also:
Ettore Stratta • The Royal ...ymphonic Bossa Nova (1994)
Tito Puente & His Latin...Orch. - Tito's Idea (1995)
Anna Estrada - Obsesion (2009)