Tags
Language
Tags
April 2024
Su Mo Tu We Th Fr Sa
31 1 2 3 4 5 6
7 8 9 10 11 12 13
14 15 16 17 18 19 20
21 22 23 24 25 26 27
28 29 30 1 2 3 4

Cheap Trick - Cheap Trick (1977) {2017, Japanese Blu-Spec CD2, Expanded & Remastered}

Posted By: popsakov
Cheap Trick - Cheap Trick (1977) {2017, Japanese Blu-Spec CD2, Expanded & Remastered}

Cheap Trick - Cheap Trick (1977) {2017, Japanese Blu-Spec CD2, Expanded & Remastered}
EAC Rip | FLAC (Img) + Cue + Log ~ 631 Mb | MP3 CBR320 ~ 261 Mb
Full Scans | 01:19:12 | RAR 5% Recovery
Hard Rock, Power Pop, Glam Rock | Epic / Sony Music Labels #SICP 31061

Cheap Trick's eponymous debut is an explosive fusion of Beatlesque melodic hooks, Who-styled power, and a twisted sense of humor partially borrowed from the Move. But that only begins to scratch the surface of what makes Cheap Trick a dynamic record. Guitarist Rick Nielsen has a powerful sense of dynamics and arrangements, which gives the music an extra kick, but he also can write exceptionally melodic and subversive songs. Nothing on Cheap Trick is quite what it seems. While the songs have hooks and attitude that arena rock was sorely lacking in the late '70s, they are also informed by a bizarre sensibility, whether it's the driving "He's a Whore," the dreamy "Mandocello," or the thumping Gary Glitter perversion "ELO Kiddies." "The Ballad of TV Violence" is about mass murder, while "Daddy Should Have Stayed in High School" concerns pedophiles. All of it is told with a sense of humor, but it doesn't come off as cheap or smirking because of the group's hard-rocking drive and Robin Zander's pop-idol vocals. Even "Oh, Candy," apparently a love song on first listen, is an affecting tribute to a friend who committed suicide. In short, Cheap Trick revel in taboo subjects with abandon, devoting themselves to the power of the hook, as well as sheer volume and gut-wrenching rock & roll – though the record is more musically accomplished than punk rock, it shares the same aesthetic. The combination of off-kilter humor, bizarre subjects, and blissful power pop made Cheap Trick one of the defining albums of its era, as well as one of the most influential.

~ Stephen Thomas Erlewine, All Music

***************

Cheap Trick - Cheap Trick (1977) {2017, Japanese Blu-Spec CD2, Expanded & Remastered}

Track List:

01. Hot Love [2:30]
02. Speak Now Or Forever Hold Your Peace [4:34]
03. He's A Whore [2:42]
04. Mandocello [4:46]
05. The Ballad Of TV Violence (I'm Not The Only Boy) [5:14]
06. Elo Kiddies [3:40]
07. Daddy Should Have Stayed In High School [4:43]
08. Taxman, Mr Thief [4:15]
09. Cry, Cry [4:22]
10. Oh, Candy [3:11]
11. Waitin' For The Man / Heroin (Live at the Brewery - Tom vocal) (Bonus track) [6:06]
12. Taxman, Mr. Thief (Ardent Studios demo) (Bonus track) [6:21]
13. Fan Club (Ardent Studios demo) (Bonus track) [5:14]
14. Elo Kiddies (Single version) (Bonus track) [3:45]
15. Lovin' Money ('Cheap Trick' outtake) (Bonus track) [4:12]
16. I Want You To Want Me (Early studio version) (Bonus track) [2:46]
17. Lookout (Studio version) (Bonus track) [3:33]
18. I Did Go-Go Girls (Outtake) (Bonus track) [3:09]
19. Oh, Candy (Single version) (Bonus track) [3:09]
20. 'Cheap Trick' Radio Spot (Bonus track) [1:02]

Exact Audio Copy V1.3 from 2. September 2016

EAC extraction logfile from 23. February 2018, 9:46

Cheap Trick / Cheap Trick (SICP 31061)

Used drive : HL-DT-STBD-RE BH16NS40 Adapter: 1 ID: 2

Read mode : Secure
Utilize accurate stream : Yes
Defeat audio cache : Yes
Make use of C2 pointers : No

Read offset correction : 6
Overread into Lead-In and Lead-Out : No
Fill up missing offset samples with silence : Yes
Delete leading and trailing silent blocks : No
Null samples used in CRC calculations : Yes
Used interface : Native Win32 interface for Win NT & 2000

Used output format : User Defined Encoder
Selected bitrate : 1024 kBit/s
Quality : High
Add ID3 tag : No
Command line compressor : C:\Program Files (x86)\Exact Audio Copy\Flac\flac.exe
Additional command line options : -V -8 -T "Genre=%genre%" -T "Artist=%artist%" -T "Title=%title%" -T "Album=%albumtitle%" -T "Date=%year%" -T "Tracknumber=%tracknr%" -T "Comment=%comment%" %source%


TOC of the extracted CD

Track | Start | Length | Start sector | End sector
––––––––––––––––––––––––––––-
1 | 0:00.00 | 2:29.69 | 0 | 11243
2 | 2:29.69 | 4:33.65 | 11244 | 31783
3 | 7:03.59 | 2:42.04 | 31784 | 43937
4 | 9:45.63 | 4:45.62 | 43938 | 65374
5 | 14:31.50 | 5:13.39 | 65375 | 88888
6 | 19:45.14 | 3:40.25 | 88889 | 105413
7 | 23:25.39 | 4:43.31 | 105414 | 126669
8 | 28:08.70 | 4:14.46 | 126670 | 145765
9 | 32:23.41 | 4:21.52 | 145766 | 165392
10 | 36:45.18 | 3:11.32 | 165393 | 179749
11 | 39:56.50 | 6:05.45 | 179750 | 207169
12 | 46:02.20 | 6:20.43 | 207170 | 235712
13 | 52:22.63 | 5:13.55 | 235713 | 259242
14 | 57:36.43 | 3:45.16 | 259243 | 276133
15 | 61:21.59 | 4:12.02 | 276134 | 295035
16 | 65:33.61 | 2:46.05 | 295036 | 307490
17 | 68:19.66 | 3:33.02 | 307491 | 323467
18 | 71:52.68 | 3:08.40 | 323468 | 337607
19 | 75:01.33 | 3:08.70 | 337608 | 351777
20 | 78:10.28 | 1:01.44 | 351778 | 356396


Range status and errors

Selected range

Filename E:\Torrent\Ginger Devil\Cheap Trick\Remasters 2017\1977 - Cheap Trick (SICP 31061)\Cheap Trick - Cheap Trick (SICP 31061).wav

Peak level 100.0 %
Extraction speed 8.0 X
Range quality 100.0 %
Test CRC 15B2E73F
Copy CRC 15B2E73F
Copy OK

No errors occurred


AccurateRip summary

Track 1 accurately ripped (confidence 1) [1AEDBDA9] (AR v2)
Track 2 accurately ripped (confidence 1) [E4EC0D72] (AR v2)
Track 3 accurately ripped (confidence 1) [842ECD46] (AR v2)
Track 4 accurately ripped (confidence 1) [B24169A7] (AR v2)
Track 5 accurately ripped (confidence 1) [2CE42E4F] (AR v2)
Track 6 accurately ripped (confidence 1) [F6F0AADA] (AR v2)
Track 7 accurately ripped (confidence 1) [1E4E6214] (AR v2)
Track 8 accurately ripped (confidence 1) [B384B840] (AR v2)
Track 9 accurately ripped (confidence 1) [B24EFF98] (AR v2)
Track 10 accurately ripped (confidence 1) [92E3F13B] (AR v2)
Track 11 accurately ripped (confidence 1) [0891C0CC] (AR v2)
Track 12 accurately ripped (confidence 1) [B8FDD267] (AR v2)
Track 13 accurately ripped (confidence 1) [244BA799] (AR v2)
Track 14 accurately ripped (confidence 1) [C94F7F51] (AR v2)
Track 15 accurately ripped (confidence 1) [DC8E3BD5] (AR v2)
Track 16 accurately ripped (confidence 1) [C612470F] (AR v2)
Track 17 cannot be verified as accurate (confidence 1) [6ED9A84E], AccurateRip returned [4078E43E] (AR v2)
Track 18 accurately ripped (confidence 1) [8D63ABF1] (AR v2)
Track 19 accurately ripped (confidence 1) [A5A8F4DE] (AR v2)
Track 20 accurately ripped (confidence 1) [2DDCCC73] (AR v2)

19 трек(и) скопированы точно
1 трек(и) не удалось проверить на точность

Some tracks could not be verified as accurate

End of status report

–– CUETools DB Plugin V2.1.6

[CTDB TOCID: Fnju5cHS0X1Q64Q2ZmgKV7IEbPQ-] found
Submit result: Fnju5cHS0X1Q64Q2ZmgKV7IEbPQ- has been confirmed
Track | CTDB Status
1 | (3/3) Accurately ripped
2 | (3/3) Accurately ripped
3 | (3/3) Accurately ripped
4 | (3/3) Accurately ripped
5 | (3/3) Accurately ripped
6 | (3/3) Accurately ripped
7 | (3/3) Accurately ripped
8 | (3/3) Accurately ripped
9 | (3/3) Accurately ripped
10 | (3/3) Accurately ripped
11 | (3/3) Accurately ripped
12 | (3/3) Accurately ripped
13 | (3/3) Accurately ripped
14 | (3/3) Accurately ripped
15 | (3/3) Accurately ripped
16 | (3/3) Accurately ripped
17 | (3/3) Accurately ripped
18 | (3/3) Accurately ripped
19 | (3/3) Accurately ripped
20 | (3/3) Accurately ripped


==== Log checksum D2F1DABA84FB256827C5473D2D8BAB592A29E86F319C50689F9FAFEF1ACFF988 ====

[CUETools log; Date: 06.03.2018 13:17:17; Version: 2.1.5]
[CTDB TOCID: Fnju5cHS0X1Q64Q2ZmgKV7IEbPQ-] found.
Track | CTDB Status
1 | (5/5) Accurately ripped
2 | (5/5) Accurately ripped
3 | (5/5) Accurately ripped
4 | (5/5) Accurately ripped
5 | (5/5) Accurately ripped
6 | (5/5) Accurately ripped
7 | (5/5) Accurately ripped
8 | (5/5) Accurately ripped
9 | (5/5) Accurately ripped
10 | (5/5) Accurately ripped
11 | (5/5) Accurately ripped
12 | (5/5) Accurately ripped
13 | (5/5) Accurately ripped
14 | (5/5) Accurately ripped
15 | (5/5) Accurately ripped
16 | (5/5) Accurately ripped
17 | (5/5) Accurately ripped
18 | (5/5) Accurately ripped
19 | (5/5) Accurately ripped
20 | (5/5) Accurately ripped
[AccurateRip ID: 003bba15-037318db-2a128f14] found.
Track [ CRC | V2 ] Status
01 [cccc474c|1aedbda9] (0+1/1) Accurately ripped
02 [70aa880d|e4ec0d72] (0+1/1) Accurately ripped
03 [fe07b201|842ecd46] (0+1/1) Accurately ripped
04 [9ad87942|b24169a7] (0+1/1) Accurately ripped
05 [b4775a23|2ce42e4f] (0+1/1) Accurately ripped
06 [94093ab0|f6f0aada] (0+1/1) Accurately ripped
07 [30b6cabb|1e4e6214] (0+1/1) Accurately ripped
08 [b6cd364c|b384b840] (0+1/1) Accurately ripped
09 [7f3fefd3|b24eff98] (0+1/1) Accurately ripped
10 [f8d8af6e|92e3f13b] (0+1/1) Accurately ripped
11 [b2abf7ab|0891c0cc] (0+1/1) Accurately ripped
12 [71513d71|b8fdd267] (0+1/1) Accurately ripped
13 [bcad8f07|244ba799] (0+1/1) Accurately ripped
14 [3be73be3|c94f7f51] (0+1/1) Accurately ripped
15 [aa98445e|dc8e3bd5] (0+1/1) Accurately ripped
16 [d901a2a1|c612470f] (0+1/1) Accurately ripped
17 [ff43595b|6ed9a84e] (0+0/1) No match
18 [e133814b|8d63abf1] (0+1/1) Accurately ripped
19 [e4cb79fa|a5a8f4de] (0+1/1) Accurately ripped
20 [d742f48d|2ddccc73] (0+1/1) Accurately ripped

Track Peak [ CRC32 ] [W/O NULL] [ LOG ]
– 100,0 [15B2E73F] [5A8D6C85] CRC32
01 97,4 [89970875] [2413577A]
02 96,6 [5ADE6C3C] [74AE6F3C]
03 100,0 [5B5EB795] [5622EC02]
04 94,1 [14608ECD] [962C651A]
05 98,8 [C37AAA83] [9404DEB3]
06 96,2 [8AD28283] [530064C6]
07 96,6 [3908297F] [EE02048D]
08 100,0 [7A2C01E6] [A3616174]
09 95,5 [18C58ED6] [8BD6AAF6]
10 96,0 [C04FA7C4] [B9B6A993]
11 95,9 [677FEB1D] [32061254]
12 95,5 [F3D4844E] [48D86678]
13 99,3 [A83350C0] [D74B540C]
14 91,7 [81EDEE52] [D1B7F1B8]
15 92,8 [CFB65118] [E91D2044]
16 100,0 [70CD6ABB] [8926DCBC]
17 93,9 [9BC1D262] [0B70945E]
18 94,2 [5325D8B8] [19C79C2D]
19 100,0 [66169475] [C968564B]
20 61,3 [D081064F] [78D7D3AD]

Cheap Trick - Cheap Trick (1977) {2017, Japanese Blu-Spec CD2, Expanded & Remastered}


All thanks go to Ginger Devil

>>> Cheap Trick in my Blog <<<

DOWNLOAD: