Tags
Language
Tags
June 2024
Su Mo Tu We Th Fr Sa
26 27 28 29 30 31 1
2 3 4 5 6 7 8
9 10 11 12 13 14 15
16 17 18 19 20 21 22
23 24 25 26 27 28 29
30 1 2 3 4 5 6

Cesaria Evora - Miss Perfumado (1992)

Posted By: popsakov
Cesaria Evora - Miss Perfumado (1992)

Cesaria Evora - Miss Perfumado (1992)
XLD Rip | FLAC (Img) + Cue + Log ~ 435 Mb | MP3 CBR320 ~ 153 Mb
Full Scans ~ 91 Mb | 01:03:19 | RAR 5% Recovery
Folk / World / Latin / Afro-Cuban / Fado / Morna / Coladeira
Lusafrica / RCA / BMG Russia / Music Factory Group #74321 97029 2

Cesaria Evora was a Cape Verdean popular singer. Nicknamed the "Barefoot Diva" for performing without shoes, she was also known as the "Queen of Morna". A native of the island nation of Cape Verde, Cesaria Evora was known as the country's foremost practitioner of the morna, which is strongly associated with the islands and combines West African percussion with Portuguese fados, Brazilian modhinas, and British sea shanties. Evora began singing morna at age 16 after meeting an attractive young guitarist. Her talent soon had her performing all over the islands, and in the late '60s two of her radio tapes were released as albums in the Netherlands and Portugal, respectively.

However, Evora never left her country, and gave up singing in the mid-'70s owing to lack of profit. In 1985, at the age of 45, she decided to return to music and traveled to Portugal to record two songs for an anthology of female Cape Verdean singers. This led to subsequent recording sessions in Paris, which resulted in four albums from 1988 to 1992. Her international fame grew, and she toured Europe, Africa, Brazil, and Canada, with stops in the United States to perform for Cape Verdean audiences. In the fall of 1995, she mounted her first large-scale American tour; subsequent recordings include 1997's Cabo Verde and 1999's Mar Azul and Cafe Atlantico.

With Evora now a certified international star, the new millennium didn't see any loss of momentum for the singer, and she continued to record and tour the globe. Her 2001 release, Sao Vicente, featured numerous collaborations, including appearances from Bonnie Raitt, Orquesta Aragon, and Brazilian superstar Caetano Veloso. Already a well-televised figure in Europe, her growing popularity in North America led to an appearance on The David Letterman Show; a DVD titled Live in Paris; the reissue of her 1974 album Distino di Belita; and the 2004 Grammy for Best Contemporary World Music recording for Voz d'Amor. The same year she was recognized by French culture minister Jean-Jacques Aillagon as an Officer des Arts et des Lettres.

After another extensive tour, in 2006 Evora released Rogamar, much of which was recorded in her hometown of Mindelo. Three years later, she released Nha Sentimento, another hometown affair, with more songs from the pen of Teofilo Chantre. Continuing heart trouble forced her to undergo surgery in 2010, and one year later, she retired from performing due to poor health. Three months after that announcement, on December 17, 2011, she died at a hospital in Mindelo.

~ Steve Huey, All Music

Ravishing is the word that springs to the lips: one of those tiresome British understatements, but it'll have to do. Evora has the most glorious voice, the melodies are heartrendingly Portuguese, the guitar-runs have escaped from a fado recording. The classic piano and string group of Miss Perfumada help explain its near-bestselling status, the near-Brazilian rhythms add the zip that tops the whole thing off.

~ John Storm Roberts, All Music

***************

Cesaria Evora - Miss Perfumado (1992)

Cesaria Evora - Miss Perfumado (1992)

Track List:

01. Sodade [04:54]
02. Bia [04:14]
03. Cumpade Ciznone [03:17]
04. Direito Di Nasce [04:43]
05. Luz Dum Estrela [04:27]
06. Angola [04:31]
07. Miss Perfumado [04:32]
08. Vida Tem Um So Vida [05:39]
09. Morabeza [04:24]
10. Recordai [04:30]
11. Lua Nha Testemunha [06:22]
12. Barbincor [04:02]
13. Tortura [04:02]
14. Angola (Remix) [03:49]

X Lossless Decoder version 20120407 (140.0)

XLD extraction logfile from 2012-04-30 00:02:42 +0300

Cesaria Evora / Miss Perfumado

Used drive : MATSHITA DVD-R UJ-898 (revision HC09)

Ripper mode : XLD Secure Ripper
Disable audio cache : OK for the drive with a cache less than 1375KiB
Make use of C2 pointers : NO
Read offset correction : 102
Max retry count : 20
Gap status : Analyzed, Appended

TOC of the extracted CD
Track | Start | Length | Start sector | End sector
––––––––––––––––––––––––––––-
1 | 00:00:00 | 04:53:23 | 0 | 21997
2 | 04:53:23 | 04:13:10 | 21998 | 40982
3 | 09:06:33 | 03:16:20 | 40983 | 55702
4 | 12:22:53 | 04:42:37 | 55703 | 76889
5 | 17:05:15 | 04:26:25 | 76890 | 96864
6 | 21:31:40 | 04:30:28 | 96865 | 117142
7 | 26:01:68 | 04:31:42 | 117143 | 137509
8 | 30:33:35 | 05:38:10 | 137510 | 162869
9 | 36:11:45 | 04:23:63 | 162870 | 182657
10 | 40:35:33 | 04:29:57 | 182658 | 202889
11 | 45:05:15 | 06:21:50 | 202890 | 231514
12 | 51:26:65 | 04:01:60 | 231515 | 249649
13 | 55:28:50 | 04:01:23 | 249650 | 267747
14 | 59:29:73 | 03:48:40 | 267748 | 284887

AccurateRip Summary
Disc not found in AccurateRip DB.

All Tracks
Filename : /Users/macuser/Music/myRips/cesaria evora-miss perfumado (1992)/01 Cesaria Evora - Miss Perfumado.flac
Album gain : -5.00 dB
Peak : 1.000000
CRC32 hash (test run) : E182C552
CRC32 hash : E182C552
CRC32 hash (skip zero) : 788EE6B4
Statistics
Read error : 0
Jitter error (maybe fixed) : 0
Retry sector count : 0
Damaged sector count : 0

Track 01
Pre-gap length : 00:02:00

Track gain : -4.82 dB
Peak : 0.946533
CRC32 hash (test run) : 3DC33345
CRC32 hash : 3DC33345
CRC32 hash (skip zero) : 1C038CB7
AccurateRip signature : F533B8CC
->Track not present in AccurateRip database.
Statistics
Read error : 0
Jitter error (maybe fixed) : 0
Retry sector count : 0
Damaged sector count : 0

Track 02

Track gain : -5.04 dB
Peak : 0.943939
CRC32 hash (test run) : 5C52149F
CRC32 hash : 5C52149F
CRC32 hash (skip zero) : 05C941BD
AccurateRip signature : 9825448B
->Track not present in AccurateRip database.
Statistics
Read error : 0
Jitter error (maybe fixed) : 0
Retry sector count : 0
Damaged sector count : 0

Track 03

Track gain : -5.80 dB
Peak : 0.946503
CRC32 hash (test run) : 4E26DCAD
CRC32 hash : 4E26DCAD
CRC32 hash (skip zero) : D4560411
AccurateRip signature : E4CA5219
->Track not present in AccurateRip database.
Statistics
Read error : 0
Jitter error (maybe fixed) : 0
Retry sector count : 0
Damaged sector count : 0

Track 04

Track gain : -3.59 dB
Peak : 0.946533
CRC32 hash (test run) : DEF01A96
CRC32 hash : DEF01A96
CRC32 hash (skip zero) : 9F50797C
AccurateRip signature : 12A5A634
->Track not present in AccurateRip database.
Statistics
Read error : 0
Jitter error (maybe fixed) : 0
Retry sector count : 0
Damaged sector count : 0

Track 05

Track gain : -3.98 dB
Peak : 0.795441
CRC32 hash (test run) : 1E3B2DE1
CRC32 hash : 1E3B2DE1
CRC32 hash (skip zero) : DE9E28F0
AccurateRip signature : 72901C35
->Track not present in AccurateRip database.
Statistics
Read error : 0
Jitter error (maybe fixed) : 0
Retry sector count : 0
Damaged sector count : 0

Track 06

Track gain : -3.40 dB
Peak : 0.946533
CRC32 hash (test run) : 6F688EC5
CRC32 hash : 6F688EC5
CRC32 hash (skip zero) : 784E3827
AccurateRip signature : D8DD5C50
->Track not present in AccurateRip database.
Statistics
Read error : 0
Jitter error (maybe fixed) : 0
Retry sector count : 0
Damaged sector count : 0

Track 07

Track gain : -5.64 dB
Peak : 0.946533
CRC32 hash (test run) : 4C6E9F8A
CRC32 hash : 4C6E9F8A
CRC32 hash (skip zero) : ECA86871
AccurateRip signature : D6DBCB79
->Track not present in AccurateRip database.
Statistics
Read error : 0
Jitter error (maybe fixed) : 0
Retry sector count : 0
Damaged sector count : 0

Track 08

Track gain : -4.83 dB
Peak : 0.946503
CRC32 hash (test run) : 6923DBF4
CRC32 hash : 6923DBF4
CRC32 hash (skip zero) : 9B41E6F1
AccurateRip signature : A3DCD976
->Track not present in AccurateRip database.
Statistics
Read error : 0
Jitter error (maybe fixed) : 0
Retry sector count : 0
Damaged sector count : 0

Track 09

Track gain : -5.87 dB
Peak : 0.946503
CRC32 hash (test run) : 9968ADEC
CRC32 hash : 9968ADEC
CRC32 hash (skip zero) : FDD3B6EB
AccurateRip signature : 3949F8E4
->Track not present in AccurateRip database.
Statistics
Read error : 0
Jitter error (maybe fixed) : 0
Retry sector count : 0
Damaged sector count : 0

Track 10

Track gain : -4.82 dB
Peak : 0.946503
CRC32 hash (test run) : 4D43B8BC
CRC32 hash : 4D43B8BC
CRC32 hash (skip zero) : ACA41AD2
AccurateRip signature : 22DE3877
->Track not present in AccurateRip database.
Statistics
Read error : 0
Jitter error (maybe fixed) : 0
Retry sector count : 0
Damaged sector count : 0

Track 11

Track gain : -5.87 dB
Peak : 0.945282
CRC32 hash (test run) : CF572671
CRC32 hash : CF572671
CRC32 hash (skip zero) : 2299CB0E
AccurateRip signature : FA07954E
->Track not present in AccurateRip database.
Statistics
Read error : 0
Jitter error (maybe fixed) : 0
Retry sector count : 0
Damaged sector count : 0

Track 12

Track gain : -4.72 dB
Peak : 0.946503
CRC32 hash (test run) : 67AF007D
CRC32 hash : 67AF007D
CRC32 hash (skip zero) : 7535E4A5
AccurateRip signature : 05574F5B
->Track not present in AccurateRip database.
Statistics
Read error : 0
Jitter error (maybe fixed) : 0
Retry sector count : 0
Damaged sector count : 0

Track 13

Track gain : -3.55 dB
Peak : 0.946533
CRC32 hash (test run) : 75B2C0E2
CRC32 hash : 75B2C0E2
CRC32 hash (skip zero) : D713AE20
AccurateRip signature : B940DE60
->Track not present in AccurateRip database.
Statistics
Read error : 0
Jitter error (maybe fixed) : 0
Retry sector count : 0
Damaged sector count : 0

Track 14

Track gain : -5.19 dB
Peak : 1.000000
CRC32 hash (test run) : 6E999F39
CRC32 hash : 6E999F39
CRC32 hash (skip zero) : 1159DE04
AccurateRip signature : B9008661
->Track not present in AccurateRip database.
Statistics
Read error : 0
Jitter error (maybe fixed) : 0
Retry sector count : 0
Damaged sector count : 0

No errors occurred

End of status report

[CUETools log; Date: 11.05.2016 14:34:39; Version: 2.1.5]
[CTDB TOCID: 52ScixOGx06XoD3TrLHG9tagCHY-] found.
Track | CTDB Status
1 | (49/49) Accurately ripped
2 | (49/49) Accurately ripped
3 | (49/49) Accurately ripped
4 | (49/49) Accurately ripped
5 | (49/49) Accurately ripped
6 | (48/49) Accurately ripped
7 | (48/49) Accurately ripped, or (1/49) differs in 64 samples @01:18:15,01:45:21,03:25:64,03:32:48,04:02:28,04:04:54
8 | (48/49) Accurately ripped, or (1/49) differs in 6 samples @02:35:00,03:15:04
9 | (49/49) Accurately ripped
10 | (49/49) Accurately ripped
11 | (43/49) Accurately ripped, or (1/49) differs in 669 samples @01:32:09-01:32:10,01:32:27,01:32:44-01:32:45,01:32:61-01:32:62,01:33:04,01:33:21,01:33:38-01:33:39,01:33:55-01:33:56,01:33:73,01:34:15-01:34:16,01:34:32-01:34:33,01:34:50-01:34:51,01:35:09-01:35:10, or (1/49) differs in 23336 samples @04:36:46-04:36:64,06:19:58-06:19:60
12 | (44/49) Accurately ripped
13 | (45/49) Accurately ripped
14 | (49/49) Accurately ripped
[AccurateRip ID: 00207d9f-015c96ad-c40ed60e] found.
Track [ CRC | V2 ] Status
01 [f533b8cc|97cbcd61] (0+0/4) No match
02 [9825448b|12a6d781] (0+0/4) No match
03 [e4ca5219|001a4299] (0+0/4) No match
04 [12a5a634|15bea046] (0+0/4) No match
05 [72901c35|5963fabc] (0+0/4) No match
06 [d8dd5c50|b164f621] (0+0/4) No match
07 [d6dbcb79|16f1fc02] (0+0/4) No match
08 [a3dcd976|7df14025] (0+0/4) No match
09 [3949f8e4|c0722d55] (0+0/4) No match
10 [22de3877|ee8d7b1b] (0+0/4) No match
11 [fa07954e|c241a327] (0+0/4) No match
12 [05574f5b|ee9892b0] (0+0/4) No match
13 [b940de60|05e53d51] (0+0/4) No match
14 [b9008661|926df4b4] (0+0/4) No match
Offsetted by 753:
01 [843bb8bf] (1/4) Accurately ripped
02 [3e62bbce] (1/4) Accurately ripped
03 [12195c2b] (1/4) Accurately ripped
04 [b56cf5aa] (1/4) Accurately ripped
05 [24393ce6] (1/4) Accurately ripped
06 [f9ce2a71] (1/4) Accurately ripped
07 [5e765336] (1/4) Accurately ripped
08 [efe4877e] (1/4) Accurately ripped
09 [65bf5e1f] (1/4) Accurately ripped
10 [4724785d] (1/4) Accurately ripped
11 [666d5b69] (1/4) Accurately ripped
12 [d03c13b3] (1/4) Accurately ripped
13 [41c4e43b] (1/4) Accurately ripped
14 [ab2d67ce] (1/4) Accurately ripped

Track Peak [ CRC32 ] [W/O NULL]
– 100,0 [E182C552] [788EE6B4]
01 94,6 [3DC33345] [1C038CB7]
02 94,3 [5C52149F] [05C941BD]
03 94,6 [4E26DCAD] [D4560411]
04 94,6 [DEF01A96] [9F50797C]
05 79,5 [1E3B2DE1] [DE9E28F0]
06 94,6 [6F688EC5] [784E3827]
07 94,6 [4C6E9F8A] [ECA86871]
08 94,6 [6923DBF4] [9B41E6F1]
09 94,6 [9968ADEC] [FDD3B6EB]
10 94,6 [4D43B8BC] [ACA41AD2]
11 94,5 [CF572671] [2299CB0E]
12 94,6 [67AF007D] [7535E4A5]
13 94,6 [75B2C0E2] [D713AE20]
14 100,0 [6E999F39] [1159DE04]

Cesaria Evora - Miss Perfumado (1992)