Céline Dion - À L'Olympia (1994)

Posted By: popsakov
Céline Dion - À L'Olympia (1994)

Céline Dion - À L'Olympia (1994)
EAC Rip | FLAC (Img) + Cue + Log ~ 474 Mb | MP3 CBR320 ~ 164 Mb
Scans (JPG, 600 dpi) ~ 77 Mb | RAR 5% Recovery
Pop, Chanson, Ballad | Epic #EPC 478161 2

Celine Dion's A l'Olympia was recorded live at the legendary Parisian venue shortly after she scored her first U.S. chart-topper with "The Power of Love," which is included here. Therefore, the material on this disc consists mostly of early English-language hits ("Where Does My Heart Beat Now" and "Love Can Move Mountains"), and selections from her first U.S. French-language release, Dion Chante Plamondon, including the rousing "Des Mots qui Sonnent," "Le Blues du Businessman," and "Ziggy." There are two tracks on this collection which are unique to this album, those being the beautiful "Elle" and her version of the Bagdad Café theme, "Calling You." Also included is her take on the Jacques Brel song "Quand on n'a que l'Amour" and a medley (titled "Medley Starmania") of Luc Plamondon songs. The material sounds great live, her voice as always a technical marvel, but with three live import CDs already on the market, and with some songs repeated, this album is destined for collectors. However, the album's allure is the fact that it was recorded before she became a massive superstar (in the U.S. anyway) in the mid-to-late 1990s. The liner notes and all segues are in French.
~ Jose F. Promis, All Music

***************

Céline Dion - À L'Olympia (1994)

Track List:

01. Des Mots Qui Sonnent [0:04:15.32]
02. Where Does My Heart Beat Now [0:08:16.10]
03. L'Amour Existe Encore [0:04:17.55]
04. Je Danse Dans Ma Tête [0:04:27.28]
05. Calling You [0:06:41.00]
06. Elle [0:03:12.37]
07. Medley Starmania [0:06:33.40]
08. Le Blues Du Businessman [0:07:04.33]
09. Le Fils De Superman [0:04:27.57]
10. Love Can Move Mountains [0:05:25.03]
11. Ziggy (Un Garçon Pas Comme Les Autres) [0:03:19.05]
12. The Power Of Love [0:06:08.47]
13. Quand On N'A Que L'Amour [0:04:08.28]

Exact Audio Copy V1.2 from 12. August 2016

EAC extraction logfile from 7. January 2017, 16:35

Celine Dion / A' L'Olympia

Used drive : PLEXTOR DVDR PX-716A Adapter: 1 ID: 0

Read mode : Secure
Utilize accurate stream : Yes
Defeat audio cache : Yes
Make use of C2 pointers : No

Read offset correction : 30
Overread into Lead-In and Lead-Out : No
Fill up missing offset samples with silence : Yes
Delete leading and trailing silent blocks : No
Null samples used in CRC calculations : Yes
Used interface : Native Win32 interface for Win NT & 2000

Used output format : User Defined Encoder
Selected bitrate : 1024 kBit/s
Quality : High
Add ID3 tag : No
Command line compressor : C:\Program Files (x86)\Exact Audio Copy\FLAC\FLAC.EXE
Additional command line options : -6 -V -T "ARTIST=%artist%" -T "TITLE=%title%" -T "ALBUM=%albumtitle%" -T "DATE=%year%" -T "TRACKNUMBER=%tracknr%" -T "GENRE=%genre%" -T "COMMENT=%comment%" -T "BAND=%albuminterpret%" -T "ALBUMARTIST=%albuminterpret%" -T "COMPOSER=%composer%" %haslyrics%–tag-from-file=LYRICS="%lyricsfile%"%haslyrics% -T "DISCNUMBER=%cdnumber%" -T "TOTALDISCS=%totalcds%" -T "TOTALTRACKS=%numtracks%" %hascover%–picture="%coverfile%"%hascover% %source% -o %dest%


TOC of the extracted CD

Track | Start | Length | Start sector | End sector
––––––––––––––––––––––––––––-
1 | 0:00.00 | 4:15.32 | 0 | 19156
2 | 4:15.32 | 8:16.10 | 19157 | 56366
3 | 12:31.42 | 4:17.55 | 56367 | 75696
4 | 16:49.22 | 4:27.28 | 75697 | 95749
5 | 21:16.50 | 6:41.00 | 95750 | 125824
6 | 27:57.50 | 3:12.37 | 125825 | 140261
7 | 31:10.12 | 6:33.40 | 140262 | 169776
8 | 37:43.52 | 7:04.33 | 169777 | 201609
9 | 44:48.10 | 4:27.57 | 201610 | 221691
10 | 49:15.67 | 5:25.03 | 221692 | 246069
11 | 54:40.70 | 3:19.05 | 246070 | 260999
12 | 58:00.00 | 6:08.47 | 261000 | 288646
13 | 64:08.47 | 4:08.28 | 288647 | 307274


Range status and errors

Selected range

Filename C:\mm\Celine Dion\1994 - A L'Olympia [EPC 478161 2]\Celine Dion - A' L'Olympia.wav

Peak level 100.0 %
Extraction speed 3.8 X
Range quality 100.0 %
Test CRC 4C3CF6F5
Copy CRC 4C3CF6F5
Copy OK

No errors occurred


AccurateRip summary

Track 1 accurately ripped (confidence 5) [E96E329B] (AR v2)
Track 2 accurately ripped (confidence 5) [0844AD61] (AR v2)
Track 3 accurately ripped (confidence 5) [71B8DA45] (AR v2)
Track 4 accurately ripped (confidence 5) [1683CBE4] (AR v2)
Track 5 accurately ripped (confidence 5) [4D251A3D] (AR v2)
Track 6 accurately ripped (confidence 5) [B6CA6D7D] (AR v2)
Track 7 accurately ripped (confidence 5) [0764ECD6] (AR v2)
Track 8 accurately ripped (confidence 5) [D414AC19] (AR v2)
Track 9 accurately ripped (confidence 5) [3D85C681] (AR v2)
Track 10 accurately ripped (confidence 5) [E4C433A5] (AR v2)
Track 11 accurately ripped (confidence 5) [FA6A5391] (AR v2)
Track 12 accurately ripped (confidence 5) [267D60DC] (AR v2)
Track 13 accurately ripped (confidence 5) [087B9032] (AR v2)

All tracks accurately ripped

End of status report

–– CUETools DB Plugin V2.1.6

[CTDB TOCID: IRfthEOpTMpUjV_GOnER3QtH82Q-] found
Submit result: IRfthEOpTMpUjV_GOnER3QtH82Q- has been confirmed
Track | CTDB Status
1 | (66/69) Accurately ripped
2 | (68/69) Accurately ripped
3 | (68/69) Accurately ripped
4 | (68/69) Accurately ripped
5 | (68/69) Accurately ripped
6 | (68/69) Accurately ripped
7 | (68/69) Accurately ripped
8 | (68/69) Accurately ripped
9 | (68/69) Accurately ripped
10 | (67/69) Accurately ripped
11 | (68/69) Accurately ripped
12 | (67/69) Accurately ripped
13 | (65/69) Accurately ripped

foobar2000 1.2.6 / Dynamic Range Meter 1.1.1
log date: 2017-01-11 09:58:02

––––––––––––––––––––––––––––––––––––––––
Analyzed: Celine Dion / A' L'Olympia
––––––––––––––––––––––––––––––––––––––––

DR Peak RMS Duration Track
––––––––––––––––––––––––––––––––––––––––
DR9 -0.20 dB -10.96 dB 4:15 01-Des Mots Qui Sonnent
DR10 -0.20 dB -12.99 dB 8:16 02-Where Does My Heart Beat Now
DR10 -0.20 dB -12.46 dB 4:18 03-L'Amour Existe Encore
DR9 0.00 dB -10.69 dB 4:27 04-Je Danse Dans Ma Tete
DR11 -0.20 dB -16.39 dB 6:41 05-Calling You
DR11 -0.20 dB -13.78 dB 3:12 06-Elle
DR9 -0.20 dB -12.78 dB 6:34 07-Medley Starmania
DR10 0.00 dB -13.79 dB 7:04 08-Le Blues Du Businessman
DR12 -0.20 dB -15.85 dB 4:28 09-Le Fils De Superman
DR10 -0.20 dB -12.36 dB 5:25 10-Love Can Move Mountains
DR14 -0.20 dB -16.03 dB 3:19 11-Ziggy (Un Garcon Pas Comme Les Autres)
DR9 -0.20 dB -11.84 dB 6:09 12-The Power Of Love
DR9 -0.20 dB -13.39 dB 4:08 13-Quand On N'A Que L'Amour
––––––––––––––––––––––––––––––––––––––––

Number of tracks: 13
Official DR value: DR10

Samplerate: 44100 Hz
Channels: 2
Bits per sample: 16
Bitrate: 925 kbps
Codec: FLAC
================================================================================

[CUETools log; Date: 11.01.2017 9:58:07; Version: 2.1.5]
[CTDB TOCID: IRfthEOpTMpUjV_GOnER3QtH82Q-] found.
Track | CTDB Status
1 | (67/70) Accurately ripped
2 | (69/70) Accurately ripped
3 | (69/70) Accurately ripped
4 | (69/70) Accurately ripped
5 | (69/70) Accurately ripped
6 | (69/70) Accurately ripped
7 | (69/70) Accurately ripped
8 | (69/70) Accurately ripped
9 | (69/70) Accurately ripped
10 | (68/70) Accurately ripped
11 | (69/70) Accurately ripped
12 | (68/70) Accurately ripped
13 | (66/70) Accurately ripped
[AccurateRip ID: 0021b569-014fd24b-c410010d] found.
Track [ CRC | V2 ] Status
01 [5bf34296|e96e329b] (05+05/61) Accurately ripped
02 [112a3428|0844ad61] (06+05/62) Accurately ripped
03 [24d59e9d|71b8da45] (05+05/61) Accurately ripped
04 [737e6b0b|1683cbe4] (05+05/61) Accurately ripped
05 [fa3ddff7|4d251a3d] (05+05/60) Accurately ripped
06 [dd2e1c9b|b6ca6d7d] (05+05/61) Accurately ripped
07 [c6d1a0b0|0764ecd6] (05+05/61) Accurately ripped
08 [e3fb4f76|d414ac19] (05+05/61) Accurately ripped
09 [496194fd|3d85c681] (05+05/61) Accurately ripped
10 [04fda442|e4c433a5] (06+05/62) Accurately ripped
11 [c737e999|fa6a5391] (05+05/61) Accurately ripped
12 [1d961038|267d60dc] (06+05/62) Accurately ripped
13 [1106ab7b|087b9032] (05+05/60) Accurately ripped
Offsetted by -579:
01 [59e15bd5] (10/61) Accurately ripped
02 [809fcb60] (10/62) Accurately ripped
03 [ca50c730] (10/61) Accurately ripped
04 [302507f8] (10/61) Accurately ripped
05 [0cad573f] (09/60) Accurately ripped
06 [37985e57] (10/61) Accurately ripped
07 [0be9aaf4] (10/61) Accurately ripped
08 [9c4067f7] (10/61) Accurately ripped
09 [e1f32172] (10/61) Accurately ripped
10 [bc0897f7] (10/62) Accurately ripped
11 [0dd4df4b] (10/61) Accurately ripped
12 [599c16b8] (10/62) Accurately ripped
13 [a1fd053d] (10/60) Accurately ripped
Offsetted by 282:
01 [cabf372a] (09/61) Accurately ripped
02 [7512e1fd] (09/62) Accurately ripped
03 [d17a4223] (09/61) Accurately ripped
04 [e49e0fcb] (09/61) Accurately ripped
05 [58b93486] (09/60) Accurately ripped
06 [ba19173e] (09/61) Accurately ripped
07 [d018d55f] (09/61) Accurately ripped
08 [80fadd74] (09/61) Accurately ripped
09 [fc0fa5b4] (09/61) Accurately ripped
10 [7d3e13f7] (09/62) Accurately ripped
11 [4d9fda71] (09/61) Accurately ripped
12 [fba49344] (09/62) Accurately ripped
13 [7c140b09] (09/60) Accurately ripped
Offsetted by -382:
01 [54e569ab] (00/61) No match (V2 was not tested)
02 [e79a4e30] (00/62) No match (V2 was not tested)
03 [d10929cd] (00/61) No match (V2 was not tested)
04 [94390856] (00/61) No match (V2 was not tested)
05 [5a9397e2] (00/60) No match (V2 was not tested)
06 [bfa39228] (00/61) No match (V2 was not tested)
07 [606c2630] (00/61) No match (V2 was not tested)
08 [cb097c24] (00/61) No match (V2 was not tested)
09 [4c77d849] (00/61) No match (V2 was not tested)
10 [cb723a75] (00/62) No match (V2 was not tested)
11 [2e201d77] (00/61) No match (V2 was not tested)
12 [e9080d01] (00/62) No match (V2 was not tested)
13 [6bba5fe3] (00/60) No match (V2 was not tested)

Track Peak [ CRC32 ] [W/O NULL] [ LOG ]
– 100,0 [4C3CF6F5] [C1BD7E91] CRC32
01 97,7 [8CEC76F7] [0BE6B2D1]
02 97,7 [242214C6] [15386A61]
03 97,7 [3B9D5426] [1633F5A7]
04 100,0 [2C72FB88] [D6C55547]
05 97,7 [6E9C1A84] [C32F20CF]
06 97,7 [635725B3] [ACE5C50B]
07 97,7 [756B11DD] [46327C9B]
08 100,0 [A3B921B4] [45BD14D2]
09 97,7 [0DF03DFA] [2BB366A8]
10 97,7 [22BB0943] [4F23ADB2]
11 97,7 [82A3561B] [7E6B973A]
12 97,7 [0DB19DC7] [BBD9B5DF]
13 97,7 [EC0AE303] [E77A12C8]

Céline Dion - À L'Olympia (1994)

Céline Dion - À L'Olympia (1994)

All thanks go to sergych

> Visit my blog <