Tags
Language
Tags
June 2024
Su Mo Tu We Th Fr Sa
26 27 28 29 30 31 1
2 3 4 5 6 7 8
9 10 11 12 13 14 15
16 17 18 19 20 21 22
23 24 25 26 27 28 29
30 1 2 3 4 5 6

Carles Magraner, Capella de Ministrers - Mediterraneum: Ramon Llull. Crònica d'un viatge medieval (2016)

Posted By: ArlegZ
Carles Magraner, Capella de Ministrers - Mediterraneum: Ramon Llull. Crònica d'un viatge medieval (2016)

Carles Magraner, Capella de Ministrers - Mediterraneum: Ramon Llull. Crònica d'un viatge medieval (2016)
EAC | FLAC | Image (Cue & Log) ~ 444 Mb | Total time: 75:19 | Scans included
Classical | Label: CdM | # CDM1639 | Recorded: 2015

The tireless pilgrimage of Llull to spread their Ars seems to nurture with new energy as are major the obstacles that cross the road. Llull wants to be present in all places and moments in the turbulent events of the 13th to 14th siecles transition. The news that the Mongols, allied with the Armenian Christians had attacked Muslim positions in Syria leads him directly to Cyprus, Armenia and the Holy Land. The last stages of his long life journey, protagonists of this album, set up one of the most representative combination of Llull and his ideas: an amalgam of music that joins sounds from Mediterranean coasts, the privileged space of Ramon Llull’s actions.

Performer:
Musica Reservata Barcelona
Capella de Ministrers
Carles Magraner, direction

Track List:
01. Shatakhi Dzernapar (Cançó d’Àsia menor)
02. Zurni Trngi (Cançó d’Àsia menor)
03. Un sirventes novel volh comensar (Peire Cardenal)
04. Jhesus Cristz, filh de Dieu viu (Guiraut Riquier)
05. Λετσίνα (Cançó grega)
06. Pax in nomine Domini (Marcabru)
07. Derdj Zidane (Cançò del Nord d’Àfrica)
08. Nu tret herzuo der boessen welle (Anònim alemany)
09. Quen leixar Santa Maria (Alfonso X el Sabio, Cantiga 132)
10. Et cler et lai (Chansonnier de Clairambault, f. 267v-268v)
11. La uitime estampie real
12. Higaz Kabir (Cançò andalusí)
13. Mater Dei plena gratia/ Mater, virgo pia/ Eius (Codex Montpellier 66)
14. Ex agone sanguinis (Codex Las Huelgas 68)
15. Com’ en si naturalmente (Alfonso el Sabio, Cantiga 335)
16. Gloria. Spiritus et alme (LU 40)
17. Twichia Nuba Asbahan (Cançò del Nord d’Àfrica)
18. Quant ay lo món consirat (Anònim català)


Exact Audio Copy V1.5 from 20. February 2020

EAC extraction logfile from 29. April 2020, 20:21

Carles Magraner, Musica Reservata Barcelona, Capella de Ministrers / MEDITERRANEUM L’Orient, Àfrica i Sicília

Used drive : hp DVDRAM GT30L Adapter: 1 ID: 1

Read mode : Secure
Utilize accurate stream : Yes
Defeat audio cache : Yes
Make use of C2 pointers : No

Read offset correction : 103
Overread into Lead-In and Lead-Out : No
Fill up missing offset samples with silence : Yes
Delete leading and trailing silent blocks : No
Null samples used in CRC calculations : Yes
Used interface : Native Win32 interface for Win NT & 2000

Used output format : User Defined Encoder
Selected bitrate : 768 kBit/s
Quality : High
Add ID3 tag : No
Command line compressor : C:\Program Files (x86)\Exact Audio Copy\Flac\flac.exe
Additional command line options : -6 -V -T "ARTIST=%artist%" -T "TITLE=%title%" -T "ALBUM=%albumtitle%" -T "DATE=%year%" -T "TRACKNUMBER=%tracknr%" -T "GENRE=%genre%" -T "COMMENT=%comment%" -T "BAND=%albuminterpret%" -T "ALBUMARTIST=%albuminterpret%" -T "DISCNUMBER=%cdnumber%" -T "TOTALDISCS=%totalcds%" -T "TOTALTRACKS=%numtracks%" %hascover%–picture="%coverfile%"%hascover% %source% -o %dest% -T "RIPPER=Roy@Susato"


TOC of the extracted CD

Track | Start | Length | Start sector | End sector
––––––––––––––––––––––––––––-
1 | 0:00.00 | 6:15.54 | 0 | 28178
2 | 6:15.54 | 3:08.03 | 28179 | 42281
3 | 9:23.57 | 7:21.33 | 42282 | 75389
4 | 16:45.15 | 3:36.36 | 75390 | 91625
5 | 20:21.51 | 3:04.57 | 91626 | 105482
6 | 23:26.33 | 6:08.21 | 105483 | 133103
7 | 29:34.54 | 5:18.23 | 133104 | 156976
8 | 34:53.02 | 5:25.40 | 156977 | 181391
9 | 40:18.42 | 3:47.56 | 181392 | 198472
10 | 44:06.23 | 5:10.18 | 198473 | 221740
11 | 49:16.41 | 3:46.27 | 221741 | 238717
12 | 53:02.68 | 1:44.09 | 238718 | 246526
13 | 54:47.02 | 4:05.67 | 246527 | 264968
14 | 58:52.69 | 2:18.60 | 264969 | 275378
15 | 61:11.54 | 2:07.07 | 275379 | 284910
16 | 63:18.61 | 3:59.68 | 284911 | 302903
17 | 67:18.54 | 2:40.58 | 302904 | 314961
18 | 69:59.37 | 5:17.59 | 314962 | 338795


Range status and errors

Selected range

Filename C:\Users\Roy\Music\LLULL - MEDITERRANEUM L’Orient, Àfrica i Sicília (2016) [Magraner; CdM]\CD (FLAC + CUE)\Ramon Llull - MEDITERRANEUM L’Orient, Àfrica i Sicília.wav

Peak level 98.8 %
Extraction speed 2.0 X
Range quality 100.0 %
Test CRC C9FC074A
Copy CRC C9FC074A
Copy OK

No errors occurred


AccurateRip summary

Track 1 accurately ripped (confidence 2) [147F81DD] (AR v2)
Track 2 accurately ripped (confidence 2) [A4EC0BBE] (AR v2)
Track 3 accurately ripped (confidence 2) [36922A8F] (AR v2)
Track 4 accurately ripped (confidence 2) [814E19FF] (AR v2)
Track 5 accurately ripped (confidence 2) [2EE79052] (AR v2)
Track 6 accurately ripped (confidence 2) [3A5B64AC] (AR v2)
Track 7 accurately ripped (confidence 2) [7FA8FD42] (AR v2)
Track 8 accurately ripped (confidence 2) [8E65BBFC] (AR v2)
Track 9 accurately ripped (confidence 2) [71E41EB7] (AR v2)
Track 10 accurately ripped (confidence 2) [FE475026] (AR v2)
Track 11 accurately ripped (confidence 2) [CAC397FA] (AR v2)
Track 12 accurately ripped (confidence 2) [322F4936] (AR v2)
Track 13 accurately ripped (confidence 2) [0CFC6CDF] (AR v2)
Track 14 accurately ripped (confidence 2) [3E8D78A9] (AR v2)
Track 15 accurately ripped (confidence 2) [C49F6E73] (AR v2)
Track 16 accurately ripped (confidence 2) [713AC08B] (AR v2)
Track 17 accurately ripped (confidence 2) [EC1D7814] (AR v2)
Track 18 accurately ripped (confidence 2) [4D714932] (AR v2)

All tracks accurately ripped

End of status report

–– CUETools DB Plugin V2.1.6

[CTDB TOCID: qZtacREizwqePMByv0ikToXdg2E-] found
Submit result: qZtacREizwqePMByv0ikToXdg2E- has been confirmed
Track | CTDB Status
1 | (5/5) Accurately ripped
2 | (5/5) Accurately ripped
3 | (5/5) Accurately ripped
4 | (5/5) Accurately ripped
5 | (5/5) Accurately ripped
6 | (5/5) Accurately ripped
7 | (5/5) Accurately ripped
8 | (5/5) Accurately ripped
9 | (5/5) Accurately ripped
10 | (5/5) Accurately ripped
11 | (5/5) Accurately ripped
12 | (5/5) Accurately ripped
13 | (5/5) Accurately ripped
14 | (5/5) Accurately ripped
15 | (5/5) Accurately ripped
16 | (5/5) Accurately ripped
17 | (5/5) Accurately ripped
18 | (5/5) Accurately ripped


==== Log checksum DDF495F5A0D4D50EFDFECD139448307C9FF01B58EA1E0834B44DFDAFF691ABB9 ====

Carles Magraner, Capella de Ministrers - Mediterraneum: Ramon Llull. Crònica d'un viatge medieval (2016)

Thanks to the original releaser