Tags
Language
Tags

Boxer: Discography (1975 - 1979)

Posted By: v3122
Boxer: Discography (1975 - 1979)

Boxer: Discography (1975 - 1979)
EAC | Flac(Image) + Cue + Log & MP3 CBR 320Kbps
3CD | Esoteric, Prog Temple | ~ 757 or 288 Mb | Scans(jpg) -> 155 Mb
Hard Rock, Blues Rock

Boxer were a rock band formed by keyboardist Mike Patto and guitarist Ollie Halsall in 1975. They signed to Virgin and three albums followed, Below the Belt (1975), Absolutely (1977) and Bloodletting (1979), which also featured Bobby Tench and Boz Burrell. The band dissolved after Absolutely when Patto became ill.

The band was managed by Nigel Thomas who secured a five album deal over five years with CBS, reputed to have been worth £1.2million and was never fully executed due to Patto's death on 4 March 1979. During a six-year period Boxer also toured the US and Europe…

~ wiki
Boxer: Discography (1975 - 1979)

Boxer: Discography (1975 - 1979):

Boxer: Discography (1975 - 1979)

Tracklist CD01 - Below The Belt 1975:
2012, Esoteric Records, ECLEC2341

01. Shooting Star (Patto, Halsall) 03:59
02. All The Time In The World (Halsall) 04:27
03. California Calling (Patto, Halsall) 04:45
04. Hip Kiss (Patto, Halsall, Ellis, Newman) 02:58
05. More Than Meets The Eye (Patto) 05:25
06. Waiting For A Miracle (Halsall) 05:06
07. Loony Ali (Patto, Halsall) 03:58
08. Save Me (Patto) 03:36
09. Gonna Work Out Fin (Patto, Halsall) 05:57
10. Town Drunk (Terry Stamp, Jim Avery) 05:17

Bonus Track:
11. Don't Wait (Patto, Halsall) (Single B-Side) 03:14

Converted to Image (CUETools 2.1.4)

Exact Audio Copy V1.0 beta 3 from 29. August 2011

EAC extraction logfile from 13. February 2013, 20:06

Boxer / Below The Belt

Used drive : Optiarc DVD RW AD-5280S Adapter: 2 ID: 2

Read mode : Secure
Utilize accurate stream : Yes
Defeat audio cache : Yes
Make use of C2 pointers : No

Read offset correction : 48
Overread into Lead-In and Lead-Out : No
Fill up missing offset samples with silence : Yes
Delete leading and trailing silent blocks : No
Null samples used in CRC calculations : Yes
Used interface : Installed external ASPI interface
Gap handling : Appended to previous track

Used output format : User Defined Encoder
Selected bitrate : 768 kBit/s
Quality : High
Add ID3 tag : No
Command line compressor : C:\Program Files\Exact Audio Copy\Flac\flac.exe
Additional command line options : -V -8 -T "Date=%year%" -T "Genre=%genre%" %source%


TOC of the extracted CD

Track | Start | Length | Start sector | End sector
––––––––––––––––––––––––––––-
1 | 0:00.00 | 3:59.35 | 0 | 17959
2 | 3:59.35 | 4:27.28 | 17960 | 38012
3 | 8:26.63 | 4:45.25 | 38013 | 59412
4 | 13:12.13 | 2:57.55 | 59413 | 72742
5 | 16:09.68 | 5:25.12 | 72743 | 97129
6 | 21:35.05 | 5:05.74 | 97130 | 120078
7 | 26:41.04 | 3:58.24 | 120079 | 137952
8 | 30:39.28 | 3:35.40 | 137953 | 154117
9 | 34:14.68 | 5:56.60 | 154118 | 180877
10 | 40:11.53 | 5:17.02 | 180878 | 204654
11 | 45:28.55 | 3:13.38 | 204655 | 219167


Track 1

Filename H:\Sket4er\Boxer - Below The Belt\01 Shooting Star.wav

Pre-gap length 0:00:02.00

Peak level 98.8 %
Extraction speed 2.3 X
Track quality 100.0 %
Test CRC 823F68C1
Copy CRC 823F68C1
Track not present in AccurateRip database
Copy OK

Track 2

Filename H:\Sket4er\Boxer - Below The Belt\02 All The Time In The World.wav

Peak level 99.4 %
Extraction speed 2.6 X
Track quality 100.0 %
Test CRC E0B42F35
Copy CRC E0B42F35
Track not present in AccurateRip database
Copy OK

Track 3

Filename H:\Sket4er\Boxer - Below The Belt\03 California Calling.wav

Peak level 99.4 %
Extraction speed 3.0 X
Track quality 100.0 %
Test CRC 01F3994B
Copy CRC 01F3994B
Track not present in AccurateRip database
Copy OK

Track 4

Filename H:\Sket4er\Boxer - Below The Belt\04 Hip Kiss.wav

Peak level 96.8 %
Extraction speed 3.0 X
Track quality 100.0 %
Test CRC AC58BA00
Copy CRC AC58BA00
Track not present in AccurateRip database
Copy OK

Track 5

Filename H:\Sket4er\Boxer - Below The Belt\05 More Than Meets The Eye.wav

Peak level 94.4 %
Extraction speed 3.5 X
Track quality 100.0 %
Test CRC 4240F930
Copy CRC 4240F930
Track not present in AccurateRip database
Copy OK

Track 6

Filename H:\Sket4er\Boxer - Below The Belt\06 Waiting For A Miracle.wav

Peak level 96.4 %
Extraction speed 3.7 X
Track quality 100.0 %
Test CRC F39C5E65
Copy CRC F39C5E65
Track not present in AccurateRip database
Copy OK

Track 7

Filename H:\Sket4er\Boxer - Below The Belt\07 Loony Ali.wav

Peak level 99.4 %
Extraction speed 3.8 X
Track quality 100.0 %
Test CRC 2E7AFCB7
Copy CRC 2E7AFCB7
Track not present in AccurateRip database
Copy OK

Track 8

Filename H:\Sket4er\Boxer - Below The Belt\08 Save Me.wav

Peak level 99.4 %
Extraction speed 3.9 X
Track quality 100.0 %
Test CRC 85A014BB
Copy CRC 85A014BB
Track not present in AccurateRip database
Copy OK

Track 9

Filename H:\Sket4er\Boxer - Below The Belt\09 Gonna Work Out Fin.wav

Peak level 99.4 %
Extraction speed 4.4 X
Track quality 100.0 %
Test CRC FD521666
Copy CRC FD521666
Track not present in AccurateRip database
Copy OK

Track 10

Filename H:\Sket4er\Boxer - Below The Belt\10 Town Drunk.wav

Peak level 99.4 %
Extraction speed 4.1 X
Track quality 99.9 %
Test CRC BA99EAC8
Copy CRC BA99EAC8
Track not present in AccurateRip database
Copy OK

Track 11

Filename H:\Sket4er\Boxer - Below The Belt\11 Don't Wait (Bonus Track).wav

Peak level 99.4 %
Extraction speed 4.4 X
Track quality 100.0 %
Test CRC 7947F94A
Copy CRC 7947F94A
Track not present in AccurateRip database
Copy OK


None of the tracks are present in the AccurateRip database

No errors occurred

End of status report

==== Log checksum BAF50902FC4E04CF97C5358C8500C92540469329CE9FD5BEC5F888A0DC2A36A7 ====


[CUETools log; Date: 07.11.2017 15:37:29; Version: 2.1.5]
[AccurateRip ID: 0013de5e-00ad44d3-890b6a0b] found.
Track [ CRC | V2 ] Status
01 [8796d253|ffcea5b2] (0+0/7) No match
02 [e423a9a7|5cd18f28] (0+0/6) No match
03 [99350bae|793b9efe] (0+0/7) No match
04 [fd8b70b1|a58fb45e] (0+0/7) No match
05 [4cc6e671|50d6faf1] (0+0/7) No match
06 [3d99ef12|4b1de8fe] (0+0/7) No match
07 [99062b5c|69f19e3d] (0+0/7) No match
08 [beb2aa9e|afaeccf7] (0+0/7) No match
09 [40a0ae45|b6cc457b] (0+0/7) No match
10 [42d6b4b8|ae198920] (0+0/7) No match
11 [045e5994|da5c5631] (0+0/7) No match
Offsetted by 751:
01 [ac7436cf] (0/7) No match (V2 was not tested)
02 [f1682559] (0/6) No match (V2 was not tested)
03 [ec734cd4] (0/7) No match (V2 was not tested)
04 [9801738f] (0/7) No match (V2 was not tested)
05 [9aeed0b9] (0/7) No match (V2 was not tested)
06 [5de51b30] (0/7) No match (V2 was not tested)
07 [2201f570] (0/7) No match (V2 was not tested)
08 [22819299] (0/7) No match (V2 was not tested)
09 [566cb85b] (0/7) No match (V2 was not tested)
10 [d6276d2f] (0/7) No match (V2 was not tested)
11 [10240427] (0/7) No match (V2 was not tested)

Track Peak [ CRC32 ] [W/O NULL] [ LOG ]
– 99,4 [62FB4ADD] [B1578AA1]
01 98,8 [823F68C1] [BBB3AD3F] CRC32
02 99,4 [E0B42F35] [8F72F9E4] CRC32
03 99,4 [01F3994B] [23C19B2F] CRC32
04 96,8 [AC58BA00] [BA3D780A] CRC32
05 94,4 [4240F930] [420E3AF5] CRC32
06 96,4 [F39C5E65] [C6C3CAAE] CRC32
07 99,4 [2E7AFCB7] [DA7B3478] CRC32
08 99,4 [85A014BB] [5BA40716] CRC32
09 99,4 [FD521666] [D0169ECA] CRC32
10 99,4 [BA99EAC8] [3E4B0286] CRC32
11 99,4 [7947F94A] [4D9A551E] CRC32


Boxer: Discography (1975 - 1979)

Tracklist CD02 - Absolutely 1977:
Prog Temple, PTCD8047

1. Fool In Love 4:03
2. Red Light Flyer 3:31
3. Big Lucy 3:49
4. No Reply 5:20
5. Can't Stand What You Do 3:10
6. As God's My Judge 3:10
7. Rich Man's Daughter 4:04
8. Everybody's A Star (So What's In A Name) 2:32
9. Hand On Your Heart 4:43

Converted to Image (CUETools 2.1.4)

Exact Audio Copy V1.1 from 23. June 2015

EAC extraction logfile from 22. April 2017, 13:12

Boxer / Absolutely

Used drive : Optiarc DVD RW AD-7201S Adapter: 1 ID: 0

Read mode : Secure
Utilize accurate stream : Yes
Defeat audio cache : Yes
Make use of C2 pointers : No

Read offset correction : 48
Overread into Lead-In and Lead-Out : No
Fill up missing offset samples with silence : Yes
Delete leading and trailing silent blocks : No
Null samples used in CRC calculations : Yes
Used interface : Native Win32 interface for Win NT & 2000
Gap handling : Appended to previous track

Used output format : User Defined Encoder
Selected bitrate : 896 kBit/s
Quality : High
Add ID3 tag : No
Command line compressor : C:\Program Files\Exact Audio Copy\FLAC\FLAC.EXE
Additional command line options : -V -8 %source%


TOC of the extracted CD

Track | Start | Length | Start sector | End sector
––––––––––––––––––––––––––––-
1 | 0:00.00 | 4:06.35 | 0 | 18484
2 | 4:06.35 | 3:31.03 | 18485 | 34312
3 | 7:37.38 | 3:50.38 | 34313 | 51600
4 | 11:28.01 | 5:20.44 | 51601 | 75644
5 | 16:48.45 | 3:57.17 | 75645 | 93436
6 | 20:45.62 | 3:11.64 | 93437 | 107825
7 | 23:57.51 | 4:05.14 | 107826 | 126214
8 | 28:02.65 | 2:33.58 | 126215 | 137747
9 | 30:36.48 | 4:45.48 | 137748 | 159170


Track 1

Filename D:\AUD\1977 - Boxer\01 Fool In Love.wav

Pre-gap length 0:00:02.00

Peak level 94.4 %
Extraction speed 3.2 X
Track quality 100.0 %
Test CRC 1785596E
Copy CRC 1785596E
Accurately ripped (confidence 1) [D85CDC53] (AR v2)
Copy OK

Track 2

Filename D:\AUD\1977 - Boxer\02 Red Light Flyer.wav

Pre-gap length 0:00:02.73

Peak level 94.5 %
Extraction speed 3.6 X
Track quality 100.0 %
Test CRC 1EB176E9
Copy CRC 1EB176E9
Accurately ripped (confidence 1) [1347C8D4] (AR v2)
Copy OK

Track 3

Filename D:\AUD\1977 - Boxer\03 Big Lucy.wav

Pre-gap length 0:00:03.07

Peak level 94.6 %
Extraction speed 3.9 X
Track quality 100.0 %
Test CRC 4254FCF4
Copy CRC 4254FCF4
Accurately ripped (confidence 1) [6511ED47] (AR v2)
Copy OK

Track 4

Filename D:\AUD\1977 - Boxer\04 No Reply.wav

Pre-gap length 0:00:02.41

Peak level 94.4 %
Extraction speed 4.0 X
Track quality 100.0 %
Test CRC 598703C6
Copy CRC 598703C6
Accurately ripped (confidence 1) [01FE4663] (AR v2)
Copy OK

Track 5

Filename D:\AUD\1977 - Boxer\05 Can't Stand What You Do.wav

Pre-gap length 0:00:04.24

Peak level 94.6 %
Extraction speed 4.5 X
Track quality 100.0 %
Test CRC 3EDF22C7
Copy CRC 3EDF22C7
Accurately ripped (confidence 1) [ADA4576F] (AR v2)
Copy OK

Track 6

Filename D:\AUD\1977 - Boxer\06 As God's My Judge.wav

Pre-gap length 0:00:03.10

Peak level 94.5 %
Extraction speed 4.8 X
Track quality 100.0 %
Test CRC 06C049F2
Copy CRC 06C049F2
Accurately ripped (confidence 1) [C8C62941] (AR v2)
Copy OK

Track 7

Filename D:\AUD\1977 - Boxer\07 Rich Man's Daughter.wav

Pre-gap length 0:00:02.04

Peak level 94.5 %
Extraction speed 4.9 X
Track quality 100.0 %
Test CRC 5FE199E0
Copy CRC 5FE199E0
Accurately ripped (confidence 1) [E9CB146F] (AR v2)
Copy OK

Track 8

Filename D:\AUD\1977 - Boxer\08 Everybody's A Star (So What's In A Name).wav

Pre-gap length 0:00:01.05

Peak level 94.5 %
Extraction speed 5.4 X
Track quality 100.0 %
Test CRC 2ECB807E
Copy CRC 2ECB807E
Accurately ripped (confidence 1) [B1DA72D1] (AR v2)
Copy OK

Track 9

Filename D:\AUD\1977 - Boxer\09 Hand On Your Heart.wav

Pre-gap length 0:00:01.16

Peak level 94.4 %
Extraction speed 5.1 X
Track quality 100.0 %
Test CRC 29D5533F
Copy CRC 29D5533F
Accurately ripped (confidence 1) [80851554] (AR v2)
Copy OK


All tracks accurately ripped

No errors occurred

End of status report

–– CUETools DB Plugin V2.1.6

[CTDB TOCID: qPh390ALOa3CU2er9nhWmZQXzoo-] found
Submit result: qPh390ALOa3CU2er9nhWmZQXzoo- has been confirmed
Track | CTDB Status
1 | (3/3) Accurately ripped
2 | (3/3) Accurately ripped
3 | (3/3) Accurately ripped
4 | (3/3) Accurately ripped
5 | (3/3) Accurately ripped
6 | (3/3) Accurately ripped
7 | (3/3) Accurately ripped
8 | (3/3) Accurately ripped
9 | (3/3) Accurately ripped


==== Log checksum D2DB9D49EBE36D3E62B7CBB23C00712DCF9DF53AFEE22D6FC0E64EE30B6F3A13 ====

––––––––––––––––––––––––––––––

Exact Audio Copy V1.1 from 23. June 2015

EAC extraction logfile from 22. April 2017, 13:12

Boxer / Absolutely

Used drive : Optiarc DVD RW AD-7201S Adapter: 1 ID: 0

Read mode : Secure
Utilize accurate stream : Yes
Defeat audio cache : Yes
Make use of C2 pointers : No

Read offset correction : 48
Overread into Lead-In and Lead-Out : No
Fill up missing offset samples with silence : Yes
Delete leading and trailing silent blocks : No
Null samples used in CRC calculations : Yes
Used interface : Native Win32 interface for Win NT & 2000
Gap handling : Appended to previous track

Used output format : User Defined Encoder
Selected bitrate : 896 kBit/s
Quality : High
Add ID3 tag : No
Command line compressor : C:\Program Files\Exact Audio Copy\FLAC\FLAC.EXE
Additional command line options : -V -8 %source%


TOC of the extracted CD

Track | Start | Length | Start sector | End sector
––––––––––––––––––––––––––––-
1 | 0:00.00 | 4:06.35 | 0 | 18484
2 | 4:06.35 | 3:31.03 | 18485 | 34312
3 | 7:37.38 | 3:50.38 | 34313 | 51600
4 | 11:28.01 | 5:20.44 | 51601 | 75644
5 | 16:48.45 | 3:57.17 | 75645 | 93436
6 | 20:45.62 | 3:11.64 | 93437 | 107825
7 | 23:57.51 | 4:05.14 | 107826 | 126214
8 | 28:02.65 | 2:33.58 | 126215 | 137747
9 | 30:36.48 | 4:45.48 | 137748 | 159170


Track 1

Filename D:\AUD\1977 - Boxer\01 Fool In Love.wav

Pre-gap length 0:00:02.00

Peak level 94.4 %
Extraction speed 3.2 X
Track quality 100.0 %
Test CRC 1785596E
Copy CRC 1785596E
Accurately ripped (confidence 1) [D85CDC53] (AR v2)
Copy OK

Track 2

Filename D:\AUD\1977 - Boxer\02 Red Light Flyer.wav

Pre-gap length 0:00:02.73

Peak level 94.5 %
Extraction speed 3.6 X
Track quality 100.0 %
Test CRC 1EB176E9
Copy CRC 1EB176E9
Accurately ripped (confidence 1) [1347C8D4] (AR v2)
Copy OK

Track 3

Filename D:\AUD\1977 - Boxer\03 Big Lucy.wav

Pre-gap length 0:00:03.07

Peak level 94.6 %
Extraction speed 3.9 X
Track quality 100.0 %
Test CRC 4254FCF4
Copy CRC 4254FCF4
Accurately ripped (confidence 1) [6511ED47] (AR v2)
Copy OK

Track 4

Filename D:\AUD\1977 - Boxer\04 No Reply.wav

Pre-gap length 0:00:02.41

Peak level 94.4 %
Extraction speed 4.0 X
Track quality 100.0 %
Test CRC 598703C6
Copy CRC 598703C6
Accurately ripped (confidence 1) [01FE4663] (AR v2)
Copy OK

Track 5

Filename D:\AUD\1977 - Boxer\05 Can't Stand What You Do.wav

Pre-gap length 0:00:04.24

Peak level 94.6 %
Extraction speed 4.5 X
Track quality 100.0 %
Test CRC 3EDF22C7
Copy CRC 3EDF22C7
Accurately ripped (confidence 1) [ADA4576F] (AR v2)
Copy OK

Track 6

Filename D:\AUD\1977 - Boxer\06 As God's My Judge.wav

Pre-gap length 0:00:03.10

Peak level 94.5 %
Extraction speed 4.8 X
Track quality 100.0 %
Test CRC 06C049F2
Copy CRC 06C049F2
Accurately ripped (confidence 1) [C8C62941] (AR v2)
Copy OK

Track 7

Filename D:\AUD\1977 - Boxer\07 Rich Man's Daughter.wav

Pre-gap length 0:00:02.04

Peak level 94.5 %
Extraction speed 4.9 X
Track quality 100.0 %
Test CRC 5FE199E0
Copy CRC 5FE199E0
Accurately ripped (confidence 1) [E9CB146F] (AR v2)
Copy OK

Track 8

Filename D:\AUD\1977 - Boxer\08 Everybody's A Star (So What's In A Name).wav

Pre-gap length 0:00:01.05

Peak level 94.5 %
Extraction speed 5.4 X
Track quality 100.0 %
Test CRC 2ECB807E
Copy CRC 2ECB807E
Accurately ripped (confidence 1) [B1DA72D1] (AR v2)
Copy OK

Track 9

Filename D:\AUD\1977 - Boxer\09 Hand On Your Heart.wav

Pre-gap length 0:00:01.16

Peak level 94.4 %
Extraction speed 5.1 X
Track quality 100.0 %
Test CRC 29D5533F
Copy CRC 29D5533F
Accurately ripped (confidence 1) [80851554] (AR v2)
Copy OK


All tracks accurately ripped

No errors occurred

End of status report

–– CUETools DB Plugin V2.1.6

[CTDB TOCID: qPh390ALOa3CU2er9nhWmZQXzoo-] found
Submit result: qPh390ALOa3CU2er9nhWmZQXzoo- has been confirmed
Track | CTDB Status
1 | (3/3) Accurately ripped
2 | (3/3) Accurately ripped
3 | (3/3) Accurately ripped
4 | (3/3) Accurately ripped
5 | (3/3) Accurately ripped
6 | (3/3) Accurately ripped
7 | (3/3) Accurately ripped
8 | (3/3) Accurately ripped
9 | (3/3) Accurately ripped


==== Log checksum D2DB9D49EBE36D3E62B7CBB23C00712DCF9DF53AFEE22D6FC0E64EE30B6F3A13 ====


[CUETools log; Date: 07.11.2017 15:34:16; Version: 2.1.5]
[AccurateRip ID: 000c4659-0059bd11-79084a09] found.
Track [ CRC | V2 ] Status
01 [bbddd4db|d85cdc53] (0+1/1) Accurately ripped
02 [d416411e|1347c8d4] (0+1/1) Accurately ripped
03 [f75588e4|6511ed47] (0+1/1) Accurately ripped
04 [e83353c7|01fe4663] (0+1/1) Accurately ripped
05 [0374ecee|ada4576f] (0+1/1) Accurately ripped
06 [2eaf2100|c8c62941] (0+1/1) Accurately ripped
07 [56b93e60|e9cb146f] (0+1/1) Accurately ripped
08 [6a14cc02|b1da72d1] (0+1/1) Accurately ripped
09 [ddba2e18|80851554] (0+1/1) Accurately ripped

Track Peak [ CRC32 ] [W/O NULL] [ LOG ]
– 94,6 [0B4D4ED3] [6DA84510]
01 94,4 [1785596E] [5FD2BF38] CRC32
02 94,5 [1EB176E9] [5B868F49] CRC32
03 94,6 [4254FCF4] [41D8ADEB] CRC32
04 94,4 [598703C6] [0A850F66] CRC32
05 94,6 [3EDF22C7] [716B52D4] CRC32
06 94,5 [06C049F2] [BC462662] CRC32
07 94,5 [5FE199E0] [F057C006] CRC32
08 94,5 [2ECB807E] [A221CFB5] CRC32
09 94,4 [29D5533F] [70720A59] CRC32


Boxer: Discography (1975 - 1979)

Tracklist CD03 - Bloodletting 1979:
2012, Esoteric Records, ECLEC2342

01. Hey Bulldog (Lennon, McCartney) 03:49
02. The Blizzard (Patto) 03:19
03. Rich Man's Daughter (Patto) 04:21
04. Big City Fever (Patto) 02:58
05. The Loner (Neil Young) 04:50
06. Why Pick On Me (Patto) 04:14
07. Love Has Got Me (Patto) 03:05
08. Dinah-Low (Terry Stamp, Jim Avery) 03:07
09. Teachers (Leonard Cohen) 06:05

Converted to Image (CUETools 2.1.4)

Exact Audio Copy V1.0 beta 3 from 29. August 2011

EAC extraction logfile from 13. February 2013, 20:44

Boxer / Bloodletting

Used drive : Optiarc DVD RW AD-5280S Adapter: 2 ID: 2

Read mode : Secure
Utilize accurate stream : Yes
Defeat audio cache : Yes
Make use of C2 pointers : No

Read offset correction : 48
Overread into Lead-In and Lead-Out : No
Fill up missing offset samples with silence : Yes
Delete leading and trailing silent blocks : No
Null samples used in CRC calculations : Yes
Used interface : Installed external ASPI interface
Gap handling : Appended to previous track

Used output format : User Defined Encoder
Selected bitrate : 768 kBit/s
Quality : High
Add ID3 tag : No
Command line compressor : C:\Program Files\Exact Audio Copy\Flac\flac.exe
Additional command line options : -V -8 -T "Date=%year%" -T "Genre=%genre%" %source%


TOC of the extracted CD

Track | Start | Length | Start sector | End sector
––––––––––––––––––––––––––––-
1 | 0:00.00 | 3:49.08 | 0 | 17182
2 | 3:49.08 | 3:19.29 | 17183 | 32136
3 | 7:08.37 | 4:20.58 | 32137 | 51694
4 | 11:29.20 | 2:57.63 | 51695 | 65032
5 | 14:27.08 | 4:49.42 | 65033 | 86749
6 | 19:16.50 | 4:14.23 | 86750 | 105822
7 | 23:30.73 | 3:04.52 | 105823 | 119674
8 | 26:35.50 | 3:07.06 | 119675 | 133705
9 | 29:42.56 | 6:05.03 | 133706 | 161083


Track 1

Filename H:\Sket4er\Boxer - Bloodletting\01 Hey Bulldog.wav

Pre-gap length 0:00:02.00

Peak level 92.0 %
Extraction speed 2.3 X
Track quality 100.0 %
Test CRC A2D291C3
Copy CRC A2D291C3
Track not present in AccurateRip database
Copy OK

Track 2

Filename H:\Sket4er\Boxer - Bloodletting\02 The Blizzard.wav

Peak level 86.0 %
Extraction speed 2.5 X
Track quality 100.0 %
Test CRC 1E4295EF
Copy CRC 1E4295EF
Track not present in AccurateRip database
Copy OK

Track 3

Filename H:\Sket4er\Boxer - Bloodletting\03 Rich Man's Daughter.wav

Peak level 91.4 %
Extraction speed 2.8 X
Track quality 100.0 %
Test CRC 556139D0
Copy CRC 556139D0
Track not present in AccurateRip database
Copy OK

Track 4

Filename H:\Sket4er\Boxer - Bloodletting\04 Big City Fever.wav

Peak level 93.2 %
Extraction speed 2.9 X
Track quality 100.0 %
Test CRC E2A5D3D1
Copy CRC E2A5D3D1
Track not present in AccurateRip database
Copy OK

Track 5

Filename H:\Sket4er\Boxer - Bloodletting\05 The Loner.wav

Peak level 93.7 %
Extraction speed 3.3 X
Track quality 100.0 %
Test CRC 26D7B268
Copy CRC 26D7B268
Track not present in AccurateRip database
Copy OK

Track 6

Filename H:\Sket4er\Boxer - Bloodletting\06 Why Pick On Me.wav

Peak level 98.6 %
Extraction speed 3.1 X
Track quality 99.9 %
Test CRC B9FC90FF
Copy CRC B9FC90FF
Track not present in AccurateRip database
Copy OK

Track 7

Filename H:\Sket4er\Boxer - Bloodletting\07 Love Has Got Me.wav

Peak level 91.9 %
Extraction speed 3.5 X
Track quality 100.0 %
Test CRC 9A7DA4CA
Copy CRC 9A7DA4CA
Track not present in AccurateRip database
Copy OK

Track 8

Filename H:\Sket4er\Boxer - Bloodletting\08 Dinah-Low.wav

Peak level 98.9 %
Extraction speed 3.6 X
Track quality 100.0 %
Test CRC 0F68C7B6
Copy CRC 0F68C7B6
Track not present in AccurateRip database
Copy OK

Track 9

Filename H:\Sket4er\Boxer - Bloodletting\09 Teachers.wav

Peak level 99.4 %
Extraction speed 4.2 X
Track quality 100.0 %
Test CRC 4A62A2BF
Copy CRC 4A62A2BF
Track not present in AccurateRip database
Copy OK


None of the tracks are present in the AccurateRip database

No errors occurred

End of status report

==== Log checksum 91890DD78669C27406B73BD4BE01CCF58CEA439F26B8AEA6C79569BA9C5A4E00 ====


[CUETools log; Date: 07.11.2017 15:52:52; Version: 2.1.5]
[AccurateRip ID: 000bcbde-0056e85a-77086309] found.
Track [ CRC | V2 ] Status
01 [c9476f6b|78e8feb2] (0+0/4) No match
02 [86db0818|5439d663] (0+0/4) No match
03 [eff7efd7|f163f251] (0+0/4) No match
04 [a87ca3cf|63fccf55] (0+0/4) No match
05 [ee331294|8d80296d] (0+0/4) No match
06 [9b9a6601|5e2af199] (0+0/4) No match
07 [8325b545|8481f826] (0+0/4) No match
08 [9e6a35db|690390ad] (0+0/4) No match
09 [9030f684|d2c35b60] (0+0/4) No match
Offsetted by 751:
01 [1f9b8c2c] (0/4) No match (V2 was not tested)
02 [f78a33f9] (0/4) No match (V2 was not tested)
03 [c9edce21] (0/4) No match (V2 was not tested)
04 [e02eefd6] (0/4) No match (V2 was not tested)
05 [5ed9ac0d] (0/4) No match (V2 was not tested)
06 [e1e2890c] (0/4) No match (V2 was not tested)
07 [dcfc1f13] (0/4) No match (V2 was not tested)
08 [8c7e76e7] (0/4) No match (V2 was not tested)
09 [834ed22a] (0/4) No match (V2 was not tested)

Track Peak [ CRC32 ] [W/O NULL] [ LOG ]
– 99,4 [73918EDA] [D8421BDB]
01 92,0 [A2D291C3] [80D8060E] CRC32
02 86,0 [1E4295EF] [9294527C] CRC32
03 91,4 [556139D0] [E64CE6E2] CRC32
04 93,2 [E2A5D3D1] [EE846F3D] CRC32
05 93,7 [26D7B268] [3C611DFA] CRC32
06 98,6 [B9FC90FF] [86334EBD] CRC32
07 91,9 [9A7DA4CA] [89644D1A] CRC32
08 98,9 [0F68C7B6] [1FDCB778] CRC32
09 99,4 [4A62A2BF] [4A595059] CRC32


All thanks go to litraett & Sket4er

Download Boxer: Discography (1975 - 1979):