Tags
Language
Tags

Black Bonzo - Lady Of The Light (2004)

Posted By: popsakov
Black Bonzo - Lady Of The Light (2004)

Black Bonzo - Lady Of The Light (2004)
EAC Rip | FLAC (Img) + Cue + Log ~ 442 Mb | MP3 CBR320 ~ 162 Mb
Full Scans | 00:58:26 | RAR 5% Recovery
Progressive Rock, Hard Rock, Classic Rock | Rock Symphony #RSLN 121

From the ashes of Swedish hard rockers The Gypsy Sons Of Magic, Black Bonzo rose again as an art prog band by adding depth to their sound through the use of mellotron, piano and Hammond organ. The intense drumming, the intricate guitar work, the firm but steady bass lines, the complex song structures, the overall pomp and their vocalist (who sounds like David Byron resurrected) all spell Uriah Heep, big time. From the very first moment Black Bonzo takes you on a trip to the wonderful sound of the late Sixties and early Seventies with strong hints from early Uriah Heep (Hammond, vocal harmonies) but also echoes from The Moody Blues (Mellotron) and Argent ('heavy progressive' with Hammond organ and harder-edged guitar). The ten compositions sound warm, harmonic and varied featuring pleasant vocals and lots of majestic Mellotron waves and powerful Hammond organ runs along some fiery electric guitar. A great album in its own right that will grab your attention from start to finish. Powerful stuff and excellent production.

***************

Black Bonzo - Lady Of The Light (2004)

Track List:

01. Lady of the Light [7:04]
02. Brave Young Soldier [9:09]
03. These are Days of Sorrow [6:42]
04. New Day [4:14]
05. Fantasyworld [6:46]
06. Freedom [3:21]
07. Sirens [4:54]
08. Jailbait [4:20]
09. Leave Your Burdens [4:03]
10. Where the River Meets the Sea [7:54]

Personnel:
Magnus Lindgren - vocals
Joakim Karlsson - guitars
Nicklas Ahlund - organ, piano, Mellotron, synthesizers
Patrick Leandersson - bass
Mike Israel - drums, percussion

Exact Audio Copy V1.0 beta 3 from 29. August 2011

EAC extraction logfile from 8. September 2018, 20:51

Black Bonzo / Black Bonzo

Used drive : PLEXTOR DVDR PX-740A Adapter: 0 ID: 0

Read mode : Secure
Utilize accurate stream : Yes
Defeat audio cache : Yes
Make use of C2 pointers : No

Read offset correction : 618
Overread into Lead-In and Lead-Out : No
Fill up missing offset samples with silence : Yes
Delete leading and trailing silent blocks : No
Null samples used in CRC calculations : Yes
Used interface : Native Win32 interface for Win NT & 2000

Used output format : Internal WAV Routines
Sample format : 44.100 Hz; 16 Bit; Stereo


TOC of the extracted CD

Track | Start | Length | Start sector | End sector
––––––––––––––––––––––––––––-
1 | 0:00.00 | 7:03.53 | 0 | 31777
2 | 7:03.53 | 9:08.63 | 31778 | 72940
3 | 16:12.41 | 6:42.15 | 72941 | 103105
4 | 22:54.56 | 4:13.71 | 103106 | 122151
5 | 27:08.52 | 6:45.70 | 122152 | 152596
6 | 33:54.47 | 3:20.45 | 152597 | 167641
7 | 37:15.17 | 4:53.50 | 167642 | 189666
8 | 42:08.67 | 4:19.52 | 189667 | 209143
9 | 46:28.44 | 4:03.07 | 209144 | 227375
10 | 50:31.51 | 7:54.36 | 227376 | 262961


Range status and errors

Selected range

Filename C:\MUSIC\CD Rips_J\Black Bonzo 1\Black Bonzo - Black Bonzo.wav

Peak level 100.0 %
Extraction speed 8.9 X
Range quality 100.0 %
Test CRC 49BC80A2
Copy CRC 49BC80A2
Copy OK

No errors occurred


AccurateRip summary

Track 1 cannot be verified as accurate (confidence 6) [D2AFEA34], AccurateRip returned [DC234365] (AR v2)
Track 2 cannot be verified as accurate (confidence 6) [982F2C29], AccurateRip returned [C080ED01] (AR v2)
Track 3 cannot be verified as accurate (confidence 6) [540F825F], AccurateRip returned [9DAF7E9C] (AR v2)
Track 4 cannot be verified as accurate (confidence 6) [DA715EEA], AccurateRip returned [BB209A98] (AR v2)
Track 5 cannot be verified as accurate (confidence 6) [104D04AF], AccurateRip returned [3C969383] (AR v2)
Track 6 cannot be verified as accurate (confidence 6) [214A545B], AccurateRip returned [B62D3E2C] (AR v2)
Track 7 cannot be verified as accurate (confidence 6) [A11ACF43], AccurateRip returned [2D330987] (AR v2)
Track 8 cannot be verified as accurate (confidence 6) [67E6F6A6], AccurateRip returned [4CDCFF54] (AR v2)
Track 9 cannot be verified as accurate (confidence 6) [190D7592], AccurateRip returned [1C921C5D] (AR v2)
Track 10 cannot be verified as accurate (confidence 6) [802A6F47], AccurateRip returned [EFDD3A99] (AR v2)

No tracks could be verified as accurate
You may have a different pressing from the one(s) in the database

End of status report

==== Log checksum F4629038644BEE44F6B353C1F420C9BAA6C459E0D5CC068099155A570AF4AA0E ====

[CUETools log; Date: 04.10.2018 17:34:58; Version: 2.1.6]
[CTDB TOCID: 6AC8AdrEYVXCWoXln15.3W0.BFg-] found.
Track | CTDB Status
1 | (7/7) Accurately ripped
2 | (7/7) Accurately ripped
3 | (7/7) Accurately ripped
4 | (7/7) Accurately ripped
5 | (7/7) Accurately ripped
6 | (7/7) Accurately ripped
7 | (7/7) Accurately ripped
8 | (7/7) Accurately ripped
9 | (7/7) Accurately ripped
10 | (7/7) Accurately ripped
[AccurateRip ID: 00177d25-00b68126-7a0db20a] found.
Track [ CRC | V2 ] Status
01 [23d9611f|d2afea34] (00+02/13) Accurately ripped
02 [543ec536|982f2c29] (00+02/13) Accurately ripped
03 [22659890|540f825f] (00+02/13) Accurately ripped
04 [c074e9d6|da715eea] (00+02/13) Accurately ripped
05 [1e377f2c|104d04af] (00+02/13) Accurately ripped
06 [46064f97|214a545b] (00+02/13) Accurately ripped
07 [0bf15986|a11acf43] (00+02/13) Accurately ripped
08 [c6e8ba77|67e6f6a6] (00+02/13) Accurately ripped
09 [0605bf26|190d7592] (00+02/13) Accurately ripped
10 [eee21da6|802a6f47] (00+02/13) Accurately ripped
Offsetted by 30:
01 [dc234365] (06/13) Accurately ripped
02 [c080ed01] (06/13) Accurately ripped
03 [9daf7e9c] (06/13) Accurately ripped
04 [bb209a98] (06/13) Accurately ripped
05 [3c969383] (06/13) Accurately ripped
06 [b62d3e2c] (06/13) Accurately ripped
07 [2d330987] (06/13) Accurately ripped
08 [4cdcff54] (06/13) Accurately ripped
09 [1c921c5d] (06/13) Accurately ripped
10 [efdd3a99] (06/13) Accurately ripped

Track Peak [ CRC32 ] [W/O NULL] [ LOG ]
– 100,0 [49BC80A2] [C2745232] CRC32
01 100,0 [1AD3D645] [75DE4866]
02 100,0 [0C459A5D] [001B578E]
03 99,2 [2FAB5266] [699AFE42]
04 99,9 [4A1FA139] [F28455C3]
05 99,2 [2EDF45E3] [13A6EE37]
06 99,2 [23C49913] [6BEB2815]
07 99,2 [1A617C87] [81B96F9B]
08 98,4 [BA68F95F] [3D68C3D8]
09 99,2 [23940709] [CEAD5F94]
10 99,6 [36976B31] [E29188CD]

Black Bonzo - Lady Of The Light (2004)


All thanks go to Juergen

>>> My Blog <<<

DOWNLOAD: