Tags
Language
Tags
January 2023
Su Mo Tu We Th Fr Sa
1 2 3 4 5 6 7
8 9 10 11 12 13 14
15 16 17 18 19 20 21
22 23 24 25 26 27 28
29 30 31 1 2 3 4

Arto Lindsay - Mundo Civilizado (1996)

Posted By: Designol
Arto Lindsay - Mundo Civilizado (1996)

Arto Lindsay - Mundo Civilizado (1996)
EAC | FLAC | Image (Cue&Log) ~ 216 Mb | Mp3 (CBR320) ~ 92 Mb | Scans ~ 210 Mb
Label: For Life Records, Rykodisc | # RCD 10410 | Time: 00:40:23
Alternative, Experimental, No Wave, Art Pop, Bossa Nova, Jazz, Downtempo

With Mundo Civilizado, downtown denizen Arto Lindsay is probably the first person to successfully integrate the sounds of techno and drum'n'bass into an already established pop music style. Others, notably David Bowie, have tried to do something similar, but although Bowie's attempt in particular was more successful than most critics give him credit for, it never sounded as natural and seamless as Lindsay's. That the former king of skronk guitar was able to achieve such a fusion while singing in Portuguese is even more impressive. Highlights include the funky female worship of "Q Samba" and the scattered herky-jerk of "Complicity" (which features the deathless couplet "Complicity, unconscious wit/Borders without borders under eyebrows"). His taste in covers is a bit more suspect – he brings as little to Prince's material as you'd expect, but is surprisingly more adept with Al Green's "Simply Beautiful." Overall, this one's a solid winner, if not quite a classic.

Review by Rick Anderson, Allmusic.com

Even when he was an enraged and alienated No Wave mutant there was wit and rhythm in his tantrums, and it was only a few years after he unveiled DNA and undermined the Lounge Lizards that this shy, suave, calculating lover boy bowed as a crooner. But even so it's wonderful and normal that he's grown up this far. Laying drum 'n' bass on deep Bahia, boldly and reverentially covering the two premier African-American singers of our era, hocking Brazilian tunes from Caetano Veloso on down, he calmly and erotically bridges English and Portugese, art tourism and manor-born tropicalia, self-conscious sweetness and unkempt literacy. This be lounge-torch jungle-samba: a fragile, lyrical, sly, beatwise, embarrassingly beautiful cross-cultural appropriation that just goes to show how people grow up and settle down even when they don't.

Review by Robert Christgau (A+)

Arto Lindsay - Mundo Civilizado (1996)



Tracklist:

01. Complicity (4:07)
02. Q Samba (3:28)
03. Simply Beautiful (4:00)
04. Mundo Civilizado (4:24)
05. Titled (3:20)
06. Horizontal (3:33)
07. Mar Da Gavea (2:43)
08. Imbassai (3:18)
09. Pleasure (2:38)
10. Erotic City (5:02)
11. Clown (3:50)


Exact Audio Copy V1.0 beta 2 from 29. April 2011

EAC extraction logfile from 15. May 2012, 10:32

Arto Lindsay / Mundo Civilizado

Used drive : TSSTcorpCDDVDW SH-S203B Adapter: 3 ID: 0

Read mode : Secure
Utilize accurate stream : Yes
Defeat audio cache : Yes
Make use of C2 pointers : No

Read offset correction : 6
Overread into Lead-In and Lead-Out : No
Fill up missing offset samples with silence : Yes
Delete leading and trailing silent blocks : No
Null samples used in CRC calculations : Yes
Used interface : Native Win32 interface for Win NT & 2000

Used output format : Internal WAV Routines
Sample format : 44.100 Hz; 16 Bit; Stereo


TOC of the extracted CD

Track | Start | Length | Start sector | End sector
––––––––––––––––––––––––––––-
1 | 0:00.00 | 4:07.02 | 0 | 18526
2 | 4:07.02 | 3:27.48 | 18527 | 34099
3 | 7:34.50 | 3:59.55 | 34100 | 52079
4 | 11:34.30 | 4:24.07 | 52080 | 71886
5 | 15:58.37 | 3:19.70 | 71887 | 86881
6 | 19:18.32 | 3:32.53 | 86882 | 102834
7 | 22:51.10 | 2:43.27 | 102835 | 115086
8 | 25:34.37 | 3:18.08 | 115087 | 129944
9 | 28:52.45 | 2:38.05 | 129945 | 141799
10 | 31:30.50 | 5:02.15 | 141800 | 164464
11 | 36:32.65 | 3:50.35 | 164465 | 181749


Range status and errors

Selected range

Filename E:\Video\Arto Lindsay - Mundo Civilizado.wav

Peak level 100.0 %
Extraction speed 6.6 X
Range quality 100.0 %
Test CRC F938A7B9
Copy CRC F938A7B9
Copy OK

No errors occurred


AccurateRip summary

Track 1 accurately ripped (confidence 2) [190664FE] (AR v1)
Track 2 accurately ripped (confidence 2) [1295EFFE] (AR v1)
Track 3 accurately ripped (confidence 2) [E2CDDF6E] (AR v1)
Track 4 accurately ripped (confidence 2) [E641C0A1] (AR v1)
Track 5 accurately ripped (confidence 2) [EE91FBF2] (AR v1)
Track 6 accurately ripped (confidence 2) [791F6F9E] (AR v1)
Track 7 accurately ripped (confidence 2) [C27A70DF] (AR v1)
Track 8 accurately ripped (confidence 2) [E220259A] (AR v1)
Track 9 accurately ripped (confidence 2) [A23E5A0A] (AR v1)
Track 10 accurately ripped (confidence 2) [08824131] (AR v1)
Track 11 cannot be verified as accurate (confidence 6) [4CE97DFC], AccurateRip returned [0AEB4730] (AR v2)

10 track(s) accurately ripped
1 track(s) could not be verified as accurate

Some tracks could not be verified as accurate

End of status report

==== Log checksum 78E4C1A7D910C5B897F33E2D62380D867DC32A5259F398281848FBAE2301AAB6 ====

[CUETools log; Date: 11.11.2018 23:10:53; Version: 2.1.4]
[CTDB TOCID: fFHtA5gM0Ag7xwXLKeHszaVl4FU-] found.
Track | CTDB Status
1 | (53/55) Accurately ripped
2 | (51/55) Accurately ripped
3 | (53/55) Accurately ripped
4 | (53/55) Accurately ripped
5 | (51/55) Accurately ripped
6 | (52/55) Accurately ripped
7 | (54/55) Accurately ripped
8 | (53/55) Accurately ripped
9 | (54/55) Accurately ripped
10 | (52/55) Accurately ripped
11 | (53/55) Accurately ripped
[AccurateRip ID: 0010c65e-009024a3-9c09770b] found.
Track [ CRC | V2 ] Status
01 [190664fe|50e4626e] (03+07/48) Accurately ripped
02 [1295effe|ef8779f4] (03+07/48) Accurately ripped
03 [e2cddf6e|e6be5b7e] (03+07/49) Accurately ripped
04 [e641c0a1|fe28cfb5] (03+07/49) Accurately ripped
05 [ee91fbf2|1b2b9558] (03+07/49) Accurately ripped
06 [791f6f9e|810370f5] (03+07/48) Accurately ripped
07 [c27a70df|8301eaff] (03+07/49) Accurately ripped
08 [e220259a|b3782629] (03+07/49) Accurately ripped
09 [a23e5a0a|28eeb978] (03+07/47) Accurately ripped
10 [08824131|97ecd10d] (03+07/46) Accurately ripped
11 [9aff9f3e|4ce97dfc] (02+07/47) Accurately ripped
Offsetted by 207:
01 [4a2f21e1] (06/48) Accurately ripped
02 [43854897] (06/48) Accurately ripped
03 [b9f590ce] (06/49) Accurately ripped
04 [43efd5f3] (06/49) Accurately ripped
05 [a85b7ac7] (06/49) Accurately ripped
06 [0cc61cf1] (06/48) Accurately ripped
07 [b55b0471] (06/49) Accurately ripped
08 [bad55d19] (06/49) Accurately ripped
09 [206504bd] (05/47) Accurately ripped
10 [910818bb] (06/46) Accurately ripped
11 [0aeb4730] (06/47) Accurately ripped
Offsetted by 839:
01 [b77654f9] (04/48) Accurately ripped
02 [8397b15f] (04/48) Accurately ripped
03 [2bf09bce] (04/49) Accurately ripped
04 [72084883] (04/49) Accurately ripped
05 [b58b056f] (04/49) Accurately ripped
06 [c6ea9389] (04/48) Accurately ripped
07 [a2506901] (04/49) Accurately ripped
08 [8bd5d511] (04/49) Accurately ripped
09 [ef76e655] (04/47) Accurately ripped
10 [0dfd7d0b] (03/46) Accurately ripped
11 [5442cec0] (04/47) Accurately ripped
Offsetted by 1108:
01 [1150fdc2] (02/48) Accurately ripped
02 [6dd9db8a] (02/48) Accurately ripped
03 [20e8d3ee] (03/49) Accurately ripped
04 [e94c3539] (03/49) Accurately ripped
05 [e885bcce] (03/49) Accurately ripped
06 [9bd0c7a2] (03/48) Accurately ripped
07 [f07ce877] (03/49) Accurately ripped
08 [39db4c2e] (03/49) Accurately ripped
09 [d62eb68e] (03/47) Accurately ripped
10 [3b134d69] (03/46) Accurately ripped
11 [7173cf56] (02/47) Accurately ripped
Offsetted by 1096:
01 [3afd01a6] (00/48) No match (V2 was not tested)
02 [6b03a276] (00/48) No match (V2 was not tested)
03 [d9130c6e] (00/49) No match (V2 was not tested)
04 [bb0e2c91] (00/49) No match (V2 was not tested)
05 [9742678a] (00/49) No match (V2 was not tested)
06 [6e2794c6] (00/48) No match (V2 was not tested)
07 [947ebacf] (00/49) No match (V2 was not tested)
08 [bdfd5062] (00/49) No match (V2 was not tested)
09 [1cc84c32] (00/47) No match (V2 was not tested)
10 [2bbda161] (00/46) No match (V2 was not tested)
11 [ecd1be2e] (00/47) No match (V2 was not tested)

Track Peak [ CRC32 ] [W/O NULL] [ LOG ]
– 99,9 [F938A7B9] [73891836] CRC32
01 99,9 [CBBDB884] [27C05C29]
02 99,9 [E1BE39E0] [44D4C9DC]
03 99,9 [9AD45007] [78EF5AF8]
04 99,9 [4EDCA8F9] [E7DCBDE7]
05 99,9 [73DEB797] [BB9A9DC8]
06 99,9 [47A9B908] [22CD67C0]
07 66,2 [913F2BDD] [D49FA1B5]
08 99,9 [1E9EB96B] [2AB8C10D]
09 79,4 [380A7A8F] [647E4254]
10 99,9 [69A68000] [C8584B21]
11 99,9 [B81384B1] [4E26C716]

foobar2000 1.2 / Dynamic Range Meter 1.1.1
log date: 2018-11-12 02:26:47

––––––––––––––––––––––––––––––––––––––––
Analyzed: Arto Lindsay / Mundo Civilizado
––––––––––––––––––––––––––––––––––––––––

DR Peak RMS Duration Track
––––––––––––––––––––––––––––––––––––––––
DR10 -0.01 dB -13.22 dB 4:07 01-Complicity
DR9 0.00 dB -11.89 dB 3:28 02-Q Samba
DR12 -0.01 dB -14.05 dB 4:00 03-Simply Beautiful
DR12 0.00 dB -12.86 dB 4:24 04-Mundo Civilizado
DR12 0.00 dB -14.25 dB 3:20 05-Titled
DR9 0.00 dB -11.78 dB 3:33 06-Horizontal
DR13 -3.58 dB -18.86 dB 2:43 07-Mar Da Gavea
DR11 -0.01 dB -13.52 dB 3:18 08-Imbassai
DR12 -2.00 dB -16.25 dB 2:38 09-Pleasure
DR8 0.00 dB -10.08 dB 5:02 10-Erotic City
DR13 -0.01 dB -15.83 dB 3:50 11-Clown
––––––––––––––––––––––––––––––––––––––––

Number of tracks: 11
Official DR value: DR11

Samplerate: 44100 Hz
Channels: 2
Bits per sample: 16
Bitrate: 747 kbps
Codec: FLAC
================================================================================

Arto Lindsay - Mundo Civilizado (1996)

Arto Lindsay - Mundo Civilizado (1996)

All thanks to original releaser - MarraM

More interesting music in My Blog