Tags
Language
Tags
October 2022
Su Mo Tu We Th Fr Sa
25 26 27 28 29 30 1
2 3 4 5 6 7 8
9 10 11 12 13 14 15
16 17 18 19 20 21 22
23 24 25 26 27 28 29
30 31 1 2 3 4 5

Anathema - Falling Deeper (2011)

Posted By: gribovar
Anathema - Falling Deeper (2011)

Anathema - Falling Deeper (2011)
EAC Rip | FLAC (image+.cue+log) - 215 MB | MP3 CBR 320 kbps (LAME 3.93) - 91 MB | Covers - 18 MB
Genre: Psychedelic/Atmospheric Rock | RAR 3% Rec. | Label: Kscope/Soyuz (KSCOPE 187)

Given Anathema's gradual transformation from doom metal merchants to sophisticated prog rockers over the course of many personnel changes since the mid-'90s, an album like Falling Deeper was a logical conceit. The band first revisited select moments from its catalog on the unplugged offering Hindsight in 2008. For some, it foretold the end. Then the band surprised many by returning in 2010 with new ideas and a renewed sense of purpose on the musically and sonically expansive - yet utterly accessible - We're Here Because We're Here, which drew raves from critics and fans alike. But digging into their oeuvre was an unsatisfied hunger for Anathema's founding brothers, Daniel and Vincent Cavanagh (who are in the company of Jamie Cavanagh and John and Lee Helen Douglas here). For Falling Deeper they've cherry-picked nine more selections from their recorded history and thoroughly rearranged and re-recorded them with arranger Dave Stewart and the London Session Orchestra led by Perry Montague-Mason. Further, they've enlisted the help of vocalist Anneke van Giersbergen, formerly of the Gathering. In essence, this set is for longtime fans only. The music, as beautifully arranged, performed, and produced as it is, doesn't go very far under the surface to get at anything dramatically new in creating a sense of revelation for the listener. Textures and atmospheres highlight Daniel Cavanagh's already brilliant melodies. If anything, these embellishments only serve to undermine what was already there and bury it in dynamic arrangements and over-production. It's a fine listen through and through, but once is enough - unlike the vast majority of Anathema's standard catalog. Ultimately, Falling Deeper can only be regarded as elegantly presented mood music.

Tracklist:
01. Crestfallen
02. Sleep In Sanity
03. Kingdom
04. They Die
05. Everwake
06. J'ai Fait Une Promesse
07. Alone
08. We The Gods
09. Sunset Of Age

Total time: 38:52

Exact Audio Copy V1.0 beta 3 from 29. August 2011

EAC extraction logfile from 1. January 2012, 19:07

Anathema / Falling Deeper

Used drive : ASUS DRW-2014L1T Adapter: 1 ID: 1

Read mode : Secure
Utilize accurate stream : Yes
Defeat audio cache : Yes
Make use of C2 pointers : No

Read offset correction : 6
Overread into Lead-In and Lead-Out : No
Fill up missing offset samples with silence : Yes
Delete leading and trailing silent blocks : No
Null samples used in CRC calculations : Yes
Used interface : Installed external ASPI interface

Used output format : Internal WAV Routines
Sample format : 44.100 Hz; 16 Bit; Stereo


TOC of the extracted CD

Track | Start | Length | Start sector | End sector
––––––––––––––––––––––––––––-
1 | 0:00.00 | 3:07.33 | 0 | 14057
2 | 3:07.33 | 3:35.15 | 14058 | 30197
3 | 6:42.48 | 4:23.52 | 30198 | 49974
4 | 11:06.25 | 2:12.69 | 49975 | 59943
5 | 13:19.19 | 3:07.11 | 59944 | 73979
6 | 16:26.30 | 4:22.39 | 73980 | 93668
7 | 20:48.69 | 7:16.37 | 93669 | 126405
8 | 28:05.31 | 3:04.40 | 126406 | 140245
9 | 31:09.71 | 7:41.73 | 140246 | 174893


Range status and errors

Selected range

Filename F:\ПЕРЕЗАЛИВКА\Anathema - Falling Deeper.wav

Peak level 99.9 %
Extraction speed 7.8 X
Range quality 100.0 %
Test CRC 8D6DEE77
Copy CRC 8D6DEE77
Copy OK

No errors occurred


AccurateRip summary

Track 1 accurately ripped (confidence 3) [C50DCAB9] (AR v2)
Track 2 accurately ripped (confidence 3) [0DE36CCD] (AR v2)
Track 3 accurately ripped (confidence 3) [14AC422E] (AR v2)
Track 4 accurately ripped (confidence 3) [A5F8FB22] (AR v2)
Track 5 accurately ripped (confidence 3) [361F743E] (AR v2)
Track 6 accurately ripped (confidence 3) [0EE86B0B] (AR v2)
Track 7 accurately ripped (confidence 3) [BC9677F5] (AR v2)
Track 8 accurately ripped (confidence 3) [8BC4421B] (AR v2)
Track 9 accurately ripped (confidence 3) [9EC4080A] (AR v2)

All tracks accurately ripped

End of status report

==== Log checksum 03C15F6163424645F48246717CC4977F83D96D025FEE7045299F8DD3499FF3D4 ====

[CUETools log; Date: 16.08.2022 19:19:22; Version: 2.1.4]
[CTDB TOCID: jABaxeQUkNOZh5g4I4NbvmcZGgg-] found.
Track | CTDB Status
1 | (290/291) Accurately ripped
2 | (290/291) Accurately ripped
3 | (290/291) Accurately ripped
4 | (290/291) Accurately ripped
5 | (290/291) Accurately ripped
6 | (290/291) Accurately ripped
7 | (290/291) Accurately ripped
8 | (290/291) Accurately ripped
9 | (288/291) Accurately ripped
[AccurateRip ID: 000ba5ea-00579708-81091b09] found.
Track [ CRC | V2 ] Status
01 [61c095ad|c50dcab9] (022+097/133) Accurately ripped
02 [a53a278f|0de36ccd] (022+096/132) Accurately ripped
03 [9db9c5cd|14ac422e] (022+096/132) Accurately ripped
04 [cfb59801|a5f8fb22] (022+096/132) Accurately ripped
05 [a04ac9a7|361f743e] (022+096/132) Accurately ripped
06 [aa0297d8|0ee86b0b] (022+096/132) Accurately ripped
07 [d2feb9ce|bc9677f5] (022+096/132) Accurately ripped
08 [d76b0e1e|8bc4421b] (022+096/132) Accurately ripped
09 [cc83163c|9ec4080a] (022+097/133) Accurately ripped
Offsetted by -36:
01 [dd77d75e] (002/133) Accurately ripped
02 [6bcae159] (002/132) Accurately ripped
03 [7617d098] (002/132) Accurately ripped
04 [0d4f3c23] (002/132) Accurately ripped
05 [bc5c8b66] (002/132) Accurately ripped
06 [6870347a] (002/132) Accurately ripped
07 [acf87b43] (002/132) Accurately ripped
08 [dcdcf2cc] (002/132) Accurately ripped
09 [14e3f540] (002/133) Accurately ripped
Offsetted by -84:
01 [13737a4d] (000/133) No match (V2 was not tested)
02 [9953c629] (000/132) No match (V2 was not tested)
03 [ddc21b9d] (000/132) No match (V2 was not tested)
04 [628ebb8f] (000/132) No match (V2 was not tested)
05 [43f47545] (000/132) No match (V2 was not tested)
06 [2aa8840d] (000/132) No match (V2 was not tested)
07 [880a7833] (000/132) No match (V2 was not tested)
08 [3996754a] (000/132) No match (V2 was not tested)
09 [caba73f0] (000/133) No match (V2 was not tested)

Track Peak [ CRC32 ] [W/O NULL] [ LOG ]
– 99,9 [8D6DEE77] [5B6A51CD] CRC32
01 99,8 [56B0EC53] [8A8C8D36]
02 99,9 [8533E11B] [CF4A173A]
03 99,9 [598FCC33] [20365D40]
04 99,8 [CB4D1E67] [5D534681]
05 99,9 [54823BEB] [1AA70842]
06 99,6 [9215994B] [4CA057E7]
07 89,0 [9E46F895] [1906A6C1]
08 97,1 [A493DB9C] [B43CB054]
09 99,9 [AF7A3B58] [0AB35F3D]

Thanks to Outcast

See also:
Anathema - Eternity (1996) [Japanese Edition]
Anathema - Alternative 4 (1998) [Japanese Edition]
Anathema - Judgement (1999) [Limited Edition]
Anathema - A Vision Of A Dying Embrace (Live in Krakow 1996) (2022)