Tags
Language
Tags

Albrecht Breuninger, Piet Kuijken - Carl Philipp Emanuel Bach: Werke für Violine und Hammerflügel (2014)

Posted By: ArlegZ
Albrecht Breuninger, Piet Kuijken - Carl Philipp Emanuel Bach: Werke für Violine und Hammerflügel (2014)

Albrecht Breuninger, Piet Kuijken - Carl Philipp Emanuel Bach: Werke für Violine und Hammerflügel (2014)
EAC | FLAC | Image (Cue & Log) ~ 276 Mb | Total time: 67:20 | Scans included
Classical | Label: Hänssler | # HAEN93312 | Recorded: 2006

The sonatas of 1763 presented here show not only the composer's ability to express personal feelings, but are direct precursors of the great creations of Mozart and Beethoven in the field of instrumental sonatas with obligato piano accompaniment. These passionate works anticipate developments that would appear later in the Romantic era. That alone should be enough to want to listen to them. Period instrument experts Piet Kuijken and Albrecht Breuninger bring this music to life with spontanety and a dash of improvisation - just right for these Sturm und Drang works of original genius.

Performer:
Albrecht Breuninger, Violine
Piet Kuijken, Hammerflügel

Track List:
Carl Philipp Emanuel Bach (1714-1788)
Sonate c-Moll Wq 78 (H 514)
01. Allegro moderato
02. Adagio ma non troppo
03. Presto
Sonate B-Dur Wq 77 (H 513)
04. Allegro di molto
05. Largo
06. Presto
07. Arioso A-Dur Wq 79 (H 535)
Sonate h-Moll Wq 76 (H 512)
08. Allegro moderato
09. Poco andante
10. Allegretto siciliano


Exact Audio Copy V1.3 from 2. September 2016

EAC extraction logfile from 15. July 2018, 14:18

Breuninger, Kuijken / CPEBach - Works for Violin and Pianoforte

Used drive : hp DVD-RAM UJ8D1 Adapter: 1 ID: 0

Read mode : Secure
Utilize accurate stream : Yes
Defeat audio cache : Yes
Make use of C2 pointers : No

Read offset correction : 6
Overread into Lead-In and Lead-Out : No
Fill up missing offset samples with silence : Yes
Delete leading and trailing silent blocks : No
Null samples used in CRC calculations : Yes
Used interface : Native Win32 interface for Win NT & 2000

Used output format : User Defined Encoder
Selected bitrate : 768 kBit/s
Quality : High
Add ID3 tag : No
Command line compressor : C:\Program Files (x86)\Exact Audio Copy\FLAC\FLAC.EXE
Additional command line options : -6 -V -T "ARTIST=%artist%" -T "TITLE=%title%" -T "ALBUM=%albumtitle%" -T "DATE=%year%" -T "TRACKNUMBER=%tracknr%" -T "GENRE=%genre%" -T "COMMENT=%comment%" -T "BAND=%albuminterpret%" -T "ALBUMARTIST=%albuminterpret%" -T "COMPOSER=%composer%" %haslyrics%–tag-from-file=LYRICS="%lyricsfile%"%haslyrics% -T "DISCNUMBER=%cdnumber%" -T "TOTALDISCS=%totalcds%" -T "TOTALTRACKS=%numtracks%" %hascover%–picture="%coverfile%"%hascover% %source% -o %dest%


TOC of the extracted CD

Track | Start | Length | Start sector | End sector
––––––––––––––––––––––––––––-
1 | 0:00.00 | 9:34.74 | 0 | 43123
2 | 9:34.74 | 7:15.35 | 43124 | 75783
3 | 16:50.34 | 5:04.49 | 75784 | 98632
4 | 21:55.08 | 6:10.59 | 98633 | 126441
5 | 28:05.67 | 5:01.48 | 126442 | 149064
6 | 33:07.40 | 4:16.09 | 149065 | 168273
7 | 37:23.49 | 10:29.04 | 168274 | 215452
8 | 47:52.53 | 7:27.48 | 215453 | 249025
9 | 55:20.26 | 5:09.46 | 249026 | 272246
10 | 60:29.72 | 6:50.16 | 272247 | 303012


Range status and errors

Selected range

Filename C:\EAC\Breuninger, Kuijken - CPEBach - Works for Violin and Pianoforte.wav

Peak level 97.7 %
Extraction speed 2.2 X
Range quality 100.0 %
Test CRC 3F82B9CE
Copy CRC 3F82B9CE
Copy OK

No errors occurred


AccurateRip summary

Track 1 accurately ripped (confidence 2) [0666CF1A] (AR v2)
Track 2 accurately ripped (confidence 2) [A9E42377] (AR v2)
Track 3 accurately ripped (confidence 2) [1511ACEA] (AR v2)
Track 4 accurately ripped (confidence 2) [6A7F4B70] (AR v2)
Track 5 accurately ripped (confidence 2) [52B36B94] (AR v2)
Track 6 accurately ripped (confidence 2) [10ADEEAC] (AR v2)
Track 7 accurately ripped (confidence 2) [397168AA] (AR v2)
Track 8 accurately ripped (confidence 2) [58C5E2F0] (AR v2)
Track 9 accurately ripped (confidence 2) [A50258AD] (AR v2)
Track 10 accurately ripped (confidence 2) [9C2B6B1A] (AR v2)

All tracks accurately ripped

End of status report

–– CUETools DB Plugin V2.1.6

[CTDB TOCID: RnXd3wMp6O_1Ywv_DQ2poI8sceQ-] found
Submit result: RnXd3wMp6O_1Ywv_DQ2poI8sceQ- has been confirmed
Track | CTDB Status
1 | (5/5) Accurately ripped
2 | (5/5) Accurately ripped
3 | (5/5) Accurately ripped
4 | (5/5) Accurately ripped
5 | (5/5) Accurately ripped
6 | (5/5) Accurately ripped
7 | (5/5) Accurately ripped
8 | (5/5) Accurately ripped
9 | (5/5) Accurately ripped
10 | (5/5) Accurately ripped


==== Log checksum 4AEEE744117DEBFC22ADDC2C20FA2ECC5F481C9C33C595F78E2BB318715240C8 ====

Albrecht Breuninger, Piet Kuijken - Carl Philipp Emanuel Bach: Werke für Violine und Hammerflügel (2014)

Thanks to the original releaser