Tags
Language
Tags
June 2024
Su Mo Tu We Th Fr Sa
26 27 28 29 30 31 1
2 3 4 5 6 7 8
9 10 11 12 13 14 15
16 17 18 19 20 21 22
23 24 25 26 27 28 29
30 1 2 3 4 5 6

Akademie fur Alte Musik Berlin, Konrad Junghanel – Handel: Poro, re dell'Indie (2007)

Posted By: tirexiss
Akademie fur Alte Musik Berlin, Konrad Junghanel – Handel: Poro, re dell'Indie (2007)

Akademie fur Alte Musik Berlin, Konrad Junghanel – Handel: Poro, re dell'Indie (2007)
EAC | FLAC (image+.cue, log) | Covers Included | 181:38 | 980 MB
Genre: Classical, Opera | Label: Göttingen Handel Festival | Catalog: none

Much has been said and written about Handel and Metastasio, and the composer’s supposed lack of interest in the librettos of the famous Roman poet. The fact is that Handel generally used adaptations of much older librettos which perhaps represented a bigger space of liberty for its work and conception of drama. Though Handel set to music only three librettos by Metastasio (Siroe, Poro and Ezio), we can hardly doubt he knew and recognised the qualities of their dramaturgy. Two of the three were successful and all of them gave him opportunity to write beautiful music. Furthermore, we should keep in mind that Handel used four other librettos by Metastasio for pasticcios (Catone, Semiramide, Arbace and Didone abbandonata) and that his interest was quite early as Metastasio wrote his first opera librettos only in the mid 1720s. Before Handel set Siroe, re di Persia to music in 1728, it had only been set by Leonardo Vinci (1726), Nicola Porpora (1727), Domenico Sarrò (1727) and Antonio Vivaldi (1727), and Siroe was only Metastasio’s second drama per musica.
First performed on February 1731, Poro re dell’Indie is based on the libretto Alessandro nell’Indie, Metastasio’s sixth drama per musica. It was first set to music in Rome by Vinci in 1729 (with Carestini as Poro), and then by Giovanni Battista Pergolesi in 1730. Hasse’s and Porpora’s settings were both created in 1731. The original libretto was dedicated to ‘Giacomo III re della Gran Bretagna’ (i.e. James (III) Stuart, the ‘old pretender’), a dedication which was probably not known to Handel’s audience! Alessandro nell’Indie was one of the most successful librettos by Metastasio and was set to music – and adapted – more than sixty times during the eighteenth century. One of the changes concerns the title which can be the original Alessandro (Vinci, Pergolesi among others) or Poro (Handel, Porpora) or Cleofide (Hasse). The name of the character used in the title is not necessarily a sign of who is the main character. In opera seria – and Metastasian – dramaturgy there is almost always a main couple of lovers, the primo uomo and the prima donna, who are here definitely Poro and Cleofide. Other usual figures are a second couple (often of lovers too; here they are Erissena and Gandarte), a bad guy (Timagene) and a particular one, the king. This character can take different forms. His particular situation – not belonging to one of the couples though he can be in love with a member of them – results in several possible uses for him: sometimes as a less vital secondary character, often an essential associate character with a vital function in the story, and sometimes as a more prominent figure, as with Alessandro in Poro. Such a character is often but not always an old one, more or less a good one. Here the figure of the king is fulfilled by Alessandro (the historical figure of the Macedonian king Alexander the great), who is definitely young, heroic, fair and good. The choice of the title can just be a way to pay homage to the dedicatee (James III Stuart associated with Alexander the great) or could be a way to satisfy the ego of the main singer (in Handel’s case, Poro was sung by Senesino).
There are very few recordings of this opera: Hans Margraf recorded it in the early 1960s, in German and with parts transposed (published on CD on Berlin Classics); more recently, Fabio Biondi recorded Poro in the mid 1990’s for Opus 111, with globally a very good cast, stronger than Junghänel’s, but with much less rigour in his approach to the score. This new semi-commercial recording from the Göttingen festival is once more particularly welcome as it could be the most satisfying recording yet. It is basically the February 1731 version with the addition of a scene from the November 1731 revival to give a better balance to the whole and more consistency to the part of Timagene, slightly neglected before because of a singer which seemed of limited capacities (in November 1731, the role of Timagene was expanded for Antonio Montagnana).
The achievement of this recording is mainly how it is very well balanced. The Akademie für Alte Musik is always excellent, and Konrad Junghänel’s conducting can suffer very few reproaches (perhaps only an infrequent lack of finesse). There is nothing exceptional from the singers but almost all of them offer good or very good performances; some weaknesses you can hear at the beginning tend to disappear during the evening. Style, emotion and commitment are never neglected. The most problematic performance is due to the tenor (as before with Biondi’s version). Although Thomas Piffka makes many efforts not to scream, his singing is quite average, lacks legato, and his Italian is sometimes quite approximate. Jutta Böhnert is a nice Cleofide, and though William Towers sometimes tries too hard with his highest notes, he shows really interesting potential.

Akademie fur Alte Musik Berlin, Konrad Junghanel – Handel: Poro, re dell'Indie (2007)

Track List:

CD 1:
Poro, Re Dell'Indie Dramma per Musica In Drei Akten HWV 28 (1731)
1. Akt
1-1 Ouverture 3:26
Scena 1
1-2 Recitiativo: Fermatevi Compagni! (Poro, Gandarte) 1:45
1-3 Aria: È Prezzo Loggiero (Gandarte) 4:01
Scena 2
1-4 Recitativo: Guerrier, T'arresta, E Cedi (Timagene, Poro, Alessandro) 2:34
1-5 Aria: Vedrai Con Tuo Periglio (Poro) 4:05
Scena 3
1-6 Recitativo: Oh Sublime Ardimento! (Alessandro, Timagene, Erissena) 0:43
1-7 Aria: Vil Trofeo D'un Alma Imbelle (Alessandro) 4:05
Scena 4
1-8 Recitativo: Questo È Alessandro (Erissena, Timagene) 0:52
1-9 Aria: Chi Vive Amante Sai Che Delira (Erissena) 4:12
1-10 Aria: Se Il Mar Promette Calma (Timagene) 4:41
Scena 5
1-11 Recitativo: Perfidi! Ite Di Poro A Ricecar Nel Campo (Cleofide, Poro) 1:58
1-12 Aria: Se Mai Più Sarò Geloso (Poro) 1:21
Scena 6
1-13 Recitativo: Erissena, Che Veggo? (Cleofide, Poro, Erissena) 1:14
1-14 Aria: Se Mai Turbo Il Tue Riposo (Cleofide) 6:28
Scena 7
1-15 Recitativo: Cleofide Và Al Campo (Poro, Erissena, Gandarte) 1:22
1-16 Aria: Se Possono Tanto Due Luci Vezzose (Poro) 6:09
Scena 8
1-17 Recitativo: Dimmi: Vedesti In Sù Gli Opposti Lidi (Erissena, Gandarte) 1:06
1-18 Aria: Compagni Nell'amore (Erissena) 3:40
Scena 9
1-19 Sinfonia 5:16
Scena 10
1-20 Recitativo: Monarca, Impaziente Il Duce Asbite (Timagene, Alessandro) 0:18
Scena 11
1-21 Recitativo: Eccola, Oh Gelosia! (Poro, Cleofide) 1:39
1-22 Aria: Se Amor A Questo Petto (Alessandro) 5:26
Scena 12
1-23 Recitativo: Lode Agli Dei! (Poro, Cleofide) 0:43
1-24 Duetto: Se Mai Turbo Il Tuo Riposo (Poro, Cleofide) 7:21

Exact Audio Copy V1.3 from 2. September 2016

EAC extraction logfile from 20. July 2018, 21:48

William Towers, Jutta Bohnert, Franziska Gottwald, Andrew Radley, Thomas Piffka, Torben Jurgens; Konrad Junghanel / Handel - Poro (Disc 1)

Used drive : ATAPI iHAS124 F Adapter: 1 ID: 0

Read mode : Secure
Utilize accurate stream : Yes
Defeat audio cache : Yes
Make use of C2 pointers : No

Read offset correction : 6
Overread into Lead-In and Lead-Out : No
Fill up missing offset samples with silence : Yes
Delete leading and trailing silent blocks : No
Null samples used in CRC calculations : Yes
Used interface : Native Win32 interface for Win NT & 2000

Used output format : User Defined Encoder
Selected bitrate : 1024 kBit/s
Quality : High
Add ID3 tag : No
Command line compressor : C:\Program Files (x86)\Exact Audio Copy\FLAC\FLAC.EXE
Additional command line options : -8 -V -T "TITLE=%title%" -T "ARTIST=%artist%" -T "ALBUMARTIST=%albumartist%" -T "ALBUM=%albumtitle%" -T "DATE=%year%" -T "TRACKNUMBER=%tracknr%" -T "TRACKTOTAL=%numtracks%" -T "GENRE=%genre%" -T "COMMENT=%comment%" -T "PERFORMER=%albuminterpret%" -T "COMPOSER=%composer%" %source% -o %dest%


TOC of the extracted CD

Track | Start | Length | Start sector | End sector
––––––––––––––––––––––––––––-
1 | 0:00.00 | 3:26.38 | 0 | 15487
2 | 3:26.38 | 1:47.51 | 15488 | 23563
3 | 5:14.14 | 4:01.58 | 23564 | 41696
4 | 9:15.72 | 2:34.33 | 41697 | 53279
5 | 11:50.30 | 4:05.38 | 53280 | 71692
6 | 15:55.68 | 0:44.02 | 71693 | 74994
7 | 16:39.70 | 5:17.61 | 74995 | 98830
8 | 21:57.56 | 0:52.74 | 98831 | 102804
9 | 22:50.55 | 4:12.49 | 102805 | 121753
10 | 27:03.29 | 4:41.73 | 121754 | 142901
11 | 31:45.27 | 1:58.19 | 142902 | 151770
12 | 33:43.46 | 1:21.20 | 151771 | 157865
13 | 35:04.66 | 1:15.01 | 157866 | 163491
14 | 36:19.67 | 6:28.60 | 163492 | 192651
15 | 42:48.52 | 1:22.68 | 192652 | 198869
16 | 44:11.45 | 6:09.58 | 198870 | 226602
17 | 50:21.28 | 1:06.41 | 226603 | 231593
18 | 51:27.69 | 3:40.70 | 231594 | 248163
19 | 55:08.64 | 5:16.34 | 248164 | 271897
20 | 60:25.23 | 0:18.61 | 271898 | 273308
21 | 60:44.09 | 1:39.34 | 273309 | 280767
22 | 62:23.43 | 5:26.47 | 280768 | 305264
23 | 67:50.15 | 0:44.03 | 305265 | 308567
24 | 68:34.18 | 7:21.28 | 308568 | 341670


Range status and errors

Selected range

Filename C:\EACRip\HANDEL\Handel - Poro (Konrad Junghanel) (2006)\CD1\Handel - Poro (Disc 1) - Konrad Junghanel.wav

Peak level 100.0 %
Extraction speed 9.8 X
Range quality 100.0 %
Test CRC 60841C35
Copy CRC 60841C35
Copy OK

No errors occurred


AccurateRip summary

Track 1 accurately ripped (confidence 1) [97273A75] (AR v2)
Track 2 accurately ripped (confidence 1) [A40AE782] (AR v2)
Track 3 accurately ripped (confidence 1) [D8BA4B2B] (AR v2)
Track 4 accurately ripped (confidence 1) [C7509884] (AR v2)
Track 5 accurately ripped (confidence 1) [BA6ABBCD] (AR v2)
Track 6 accurately ripped (confidence 1) [FA14EB23] (AR v2)
Track 7 accurately ripped (confidence 1) [7A400970] (AR v2)
Track 8 accurately ripped (confidence 1) [328FCA64] (AR v2)
Track 9 accurately ripped (confidence 1) [DA243BC7] (AR v2)
Track 10 accurately ripped (confidence 1) [645CE68E] (AR v2)
Track 11 accurately ripped (confidence 1) [8DA2FC6B] (AR v2)
Track 12 accurately ripped (confidence 1) [241F5B11] (AR v2)
Track 13 accurately ripped (confidence 1) [76BC1432] (AR v2)
Track 14 accurately ripped (confidence 1) [93CCCC98] (AR v2)
Track 15 accurately ripped (confidence 1) [114E02E6] (AR v2)
Track 16 accurately ripped (confidence 1) [6F565C17] (AR v2)
Track 17 accurately ripped (confidence 1) [3491B28E] (AR v2)
Track 18 accurately ripped (confidence 1) [39644A74] (AR v2)
Track 19 accurately ripped (confidence 1) [86C0CE96] (AR v2)
Track 20 accurately ripped (confidence 1) [1EE8F5F1] (AR v2)
Track 21 accurately ripped (confidence 1) [7D561C14] (AR v2)
Track 22 accurately ripped (confidence 1) [7922D03C] (AR v2)
Track 23 accurately ripped (confidence 1) [8494DE6F] (AR v2)
Track 24 accurately ripped (confidence 1) [790B980C] (AR v2)

All tracks accurately ripped

End of status report

–– CUETools DB Plugin V2.1.6

[CTDB TOCID: 6yg4be7QZQXl.ItQwmIZbJjiDjc-] found
Submit result: 6yg4be7QZQXl.ItQwmIZbJjiDjc- has been uploaded
Track | CTDB Status
1 | (1/1) Differs in 39 samples @03:26:37
2 | (1/1) Differs in 34 samples @01:47:50
3 | (1/1) Differs in 40 samples @04:01:57
4 | (1/1) Differs in 36 samples @02:34:32
5 | (1/1) Differs in 40 samples @04:05:37
6 | (1/1) Differs in 40 samples @00:44:01
7 | (1/1) Differs in 39 samples @05:17:60
8 | (1/1) Differs in 39 samples @00:52:73
9 | (1/1) Differs in 40 samples @04:12:48
10 | (1/1) Differs in 40 samples @04:41:72
11 | (1/1) Differs in 38 samples @01:58:18
12 | (1/1) Differs in 39 samples @01:21:19
13 | (1/1) Differs in 40 samples @01:15:00
14 | (1/1) Differs in 40 samples @06:28:59
15 | (1/1) Differs in 35 samples @01:22:67
16 | (1/1) Differs in 40 samples @06:09:57
17 | (1/1) Differs in 40 samples @01:06:40
18 | (1/1) Differs in 39 samples @03:40:69
19 | (1/1) Differs in 40 samples @05:16:33
20 | (1/1) Differs in 40 samples @00:18:60
21 | (1/1) Differs in 39 samples @01:39:33
22 | (1/1) Differs in 40 samples @05:26:46
23 | (1/1) Differs in 36 samples @00:44:02
24 | (1/1) Accurately ripped
If you are sure that your rip contains errors, you can use CUETools to repair it.


==== Log checksum 567A79718A9FAFA0674B0D39E1FB44584AAE53492A69DB2E4C5A7A2F7A65B946 ====

CD 2:
2. Akt
Scena 1
2-1 Sinfonia 1:00
Scena 2
2-2 Recitativo: Mio Ben! (Cleofide, Poro) 2:08
2-3 Duetto: Caro Amico Amplesso (Cleofide, Poro) 2:08
Scena 3
2-4 Recitativo: Crudel, T'arresta! (Alessandro, Cleofide, Poro) 0:27
Scena 4
2-5 Recitativo: Pronto Le Greche Schiere (Timagene, Poro, Cleofide, Alessandro) 0:55
2-6 Aria: D'un Barbaro Scortese (Alessandro) 3:28
Scena 5
2-7 Recitativo: Macedoni, Alla Reggia (Timagene, Cleofide, Poro) 1:00
2-8 Aria: Digli Ch'io Son Fidele (Cleofide) 6:05
Scena 6
2-9 Recitativo: Tenerezze Ingengnose! (Timagene, Poro) 1:17
2-10 Aria: Senza Procelle Ancora (Poro) 9:11
Scena 7
2-11 Recitativo: E Tentò Di Svenarti? (Gandarte, Cleofide) 0:24
Scena 8
2-12 Recitativo: Per Salvarti, Oh Regina (Alessandro, Cleofide, Gandarte) 2:18
Scena 9
2-13 Recitativo: Quanto Dobbiamo (Cleofide, Gandarte, Erissena) 1:20
2-14 Aria: Se Il Ciel Mi Divide (Cleofide) 7:24
Scena 10
2-15 Recitativo: Adorate Erissena (Gandarte, Erissena) 0:53
2-16 Aria: Se Viver Non Poss'io (Gandarte) 6:39
Scena 11
2-17 Recitativo: E Pur, Chi'l Crederia? (Erissena) 0:28
2-18 Aria: Di Rendermi La Calma Prometti (Erissena) 4:11

Exact Audio Copy V1.3 from 2. September 2016

EAC extraction logfile from 21. July 2018, 17:54

William Towers, Jutta Bohnert, Franziska Gottwald, Andrew Radley, Thomas Piffka, Torben Jurgens; Konrad Junghanel / Handel - Poro (Disc 2)

Used drive : ATAPI iHAS124 F Adapter: 1 ID: 0

Read mode : Secure
Utilize accurate stream : Yes
Defeat audio cache : Yes
Make use of C2 pointers : No

Read offset correction : 6
Overread into Lead-In and Lead-Out : No
Fill up missing offset samples with silence : Yes
Delete leading and trailing silent blocks : No
Null samples used in CRC calculations : Yes
Used interface : Native Win32 interface for Win NT & 2000

Used output format : User Defined Encoder
Selected bitrate : 1024 kBit/s
Quality : High
Add ID3 tag : No
Command line compressor : C:\Program Files (x86)\Exact Audio Copy\FLAC\FLAC.EXE
Additional command line options : -8 -V -T "TITLE=%title%" -T "ARTIST=%artist%" -T "ALBUMARTIST=%albumartist%" -T "ALBUM=%albumtitle%" -T "DATE=%year%" -T "TRACKNUMBER=%tracknr%" -T "TRACKTOTAL=%numtracks%" -T "GENRE=%genre%" -T "COMMENT=%comment%" -T "PERFORMER=%albuminterpret%" -T "COMPOSER=%composer%" %source% -o %dest%


TOC of the extracted CD

Track | Start | Length | Start sector | End sector
––––––––––––––––––––––––––––-
1 | 0:00.00 | 1:00.18 | 0 | 4517
2 | 1:00.18 | 2:08.63 | 4518 | 14180
3 | 3:09.06 | 3:56.71 | 14181 | 31951
4 | 7:06.02 | 0:27.36 | 31952 | 34012
5 | 7:33.38 | 0:55.44 | 34013 | 38181
6 | 8:29.07 | 3:28.36 | 38182 | 53817
7 | 11:57.43 | 1:00.26 | 53818 | 58343
8 | 12:57.69 | 6:05.33 | 58344 | 85751
9 | 19:03.27 | 1:17.33 | 85752 | 91559
10 | 20:20.60 | 9:11.24 | 91560 | 132908
11 | 29:32.09 | 0:24.21 | 132909 | 134729
12 | 29:56.30 | 2:18.51 | 134730 | 145130
13 | 32:15.06 | 1:20.24 | 145131 | 151154
14 | 33:35.30 | 7:24.03 | 151155 | 184457
15 | 40:59.33 | 0:53.57 | 184458 | 188489
16 | 41:53.15 | 6:39.02 | 188490 | 218416
17 | 48:32.17 | 0:28.20 | 218417 | 220536
18 | 49:00.37 | 4:11.45 | 220537 | 239406


Range status and errors

Selected range

Filename C:\EACRip\HANDEL\Handel - Poro (Konrad Junghanel) (2006)\CD2\Handel - Poro (Disc 2) - Konrad Junghanel.wav

Peak level 90.1 %
Extraction speed 8.4 X
Range quality 100.0 %
Test CRC 45D15AA7
Copy CRC 45D15AA7
Copy OK

No errors occurred


AccurateRip summary

Track 1 accurately ripped (confidence 1) [74D09D1C] (AR v2)
Track 2 accurately ripped (confidence 1) [6F778989] (AR v2)
Track 3 accurately ripped (confidence 1) [8C9C5AAA] (AR v2)
Track 4 accurately ripped (confidence 1) [22BD0F27] (AR v2)
Track 5 accurately ripped (confidence 1) [DC4D65C1] (AR v2)
Track 6 accurately ripped (confidence 1) [CF7407D8] (AR v2)
Track 7 accurately ripped (confidence 1) [20B318A2] (AR v2)
Track 8 accurately ripped (confidence 1) [C58A8C81] (AR v2)
Track 9 accurately ripped (confidence 1) [4E19EF37] (AR v2)
Track 10 accurately ripped (confidence 1) [16B90C07] (AR v2)
Track 11 accurately ripped (confidence 1) [8F57961D] (AR v2)
Track 12 accurately ripped (confidence 1) [FC0CB3A4] (AR v2)
Track 13 accurately ripped (confidence 1) [A22B74A5] (AR v2)
Track 14 accurately ripped (confidence 1) [67285795] (AR v2)
Track 15 accurately ripped (confidence 1) [E7EB8E7C] (AR v2)
Track 16 accurately ripped (confidence 1) [6FD7439A] (AR v2)
Track 17 accurately ripped (confidence 1) [FC46B6AB] (AR v2)
Track 18 accurately ripped (confidence 1) [0D5A1C64] (AR v2)

All tracks accurately ripped

End of status report

–– CUETools DB Plugin V2.1.6

[CTDB TOCID: 5LkeCU3zf5Lgf4MgiveEyXiqJVM-] disk not present in database
Submit result: 5LkeCU3zf5Lgf4MgiveEyXiqJVM- has been uploaded


==== Log checksum 2CC3D44FE0CC27FF8C640B0BAC186B32B7DC17B8DB80AE20568154E55203FE0B ====

CD 3:
3. Akt
3-1 Sinfonia 1:31
Scena 1
3-2 Recitativo: Erissena! Che Miro? (Poro, Erissena) 1:30
3-3 Aria: Risveglia Lo Sdegno (Poro) 3:01
Scena 2 / Scena 3
3-4 Recitativo: Ah! Funesto Commando! / Regina, È Dunque Vero (Erissena, Cleofide) 1:29
Scena 4
3-5 Recitativo: Cleofide, Si Presto Io Non Credea (Cleofide, Erissena) 0:24
3-6 Aria: Se Troppo Crede Al Ciglio (Cleofide) 5:28
Scena 5
3-7 Recitativo: Giunge Alessandro (Erissena, Alessandro) 1:21
3-8 Aria: Come Il Candore D'intatta Neve (Erissena) 3:28
Scena 6
3-9 Recitativo: Per Qual Via Non Pensata (Alessandro, Timagene) 1:17
3-10 Aria: Serbati A Grandi Imprese (Alessandro) 5:26
Scena 7
3-11 Recitativo: Ecco Spezzato Il Solo Filo (Poro, Gandarte) 2:29
Scena 8
3-12 Aria: Dov'è? (Poro) 3:23
Scena 9
3-13 Recitativo: Gandarte, In Questo Stato (Erissena, Gandarte) 0:31
3-14 Aria: Mio Ben, Ricordati (Gandarte) 3:30
Scena 10
3-15 Recitativo: D'inaspettati Eventi (Erissena) 0:31
3-16 Aria: Son Confusa Pastorella (Erissena) 6:57
Scena 11
3-17 Recitativo: Tu Mi Contrasti Invano (Poro) 0:10
3-18 Sinfonia 0:47
Scena 12
3-19 Recativo: Nella Odorata Pira (Cleofide, Alessandro, Poro) 1:12
3-20 Arioso: Spirto Amato (Cleofide) 2:00
Scena Ultima
3-21 Recitativo: Come! Poro? (Cleofide, Poro, Erissena, Gandarte, Timagene 2:02
3-22 Duetto: Caro, Vieni Al Mio Seno (Cleofide, Poro, Coro) 4:11

Exact Audio Copy V1.3 from 2. September 2016

EAC extraction logfile from 21. July 2018, 19:40

William Towers, Jutta Bohnert, Franziska Gottwald, Andrew Radley, Thomas Piffka, Torben Jurgens; Konrad Junghanel / Handel - Poro (Disc 3)

Used drive : ATAPI iHAS124 F Adapter: 1 ID: 0

Read mode : Secure
Utilize accurate stream : Yes
Defeat audio cache : Yes
Make use of C2 pointers : No

Read offset correction : 6
Overread into Lead-In and Lead-Out : No
Fill up missing offset samples with silence : Yes
Delete leading and trailing silent blocks : No
Null samples used in CRC calculations : Yes
Used interface : Native Win32 interface for Win NT & 2000

Used output format : User Defined Encoder
Selected bitrate : 1024 kBit/s
Quality : High
Add ID3 tag : No
Command line compressor : C:\Program Files (x86)\Exact Audio Copy\FLAC\FLAC.EXE
Additional command line options : -8 -V -T "TITLE=%title%" -T "ARTIST=%artist%" -T "ALBUMARTIST=%albumartist%" -T "ALBUM=%albumtitle%" -T "DATE=%year%" -T "TRACKNUMBER=%tracknr%" -T "TRACKTOTAL=%numtracks%" -T "GENRE=%genre%" -T "COMMENT=%comment%" -T "PERFORMER=%albuminterpret%" -T "COMPOSER=%composer%" %source% -o %dest%


TOC of the extracted CD

Track | Start | Length | Start sector | End sector
––––––––––––––––––––––––––––-
1 | 0:00.00 | 1:13.20 | 0 | 5494
2 | 1:13.20 | 1:30.07 | 5495 | 12251
3 | 2:43.27 | 3:01.74 | 12252 | 25900
4 | 5:45.26 | 1:29.55 | 25901 | 32630
5 | 7:15.06 | 0:24.06 | 32631 | 34436
6 | 7:39.12 | 5:28.27 | 34437 | 59063
7 | 13:07.39 | 1:21.37 | 59064 | 65175
8 | 14:29.01 | 3:28.03 | 65176 | 80778
9 | 17:57.04 | 1:17.49 | 80779 | 86602
10 | 19:14.53 | 5:26.40 | 86603 | 111092
11 | 24:41.18 | 2:29.68 | 111093 | 122335
12 | 27:11.11 | 3:23.14 | 122336 | 137574
13 | 30:34.25 | 0:31.60 | 137575 | 139959
14 | 31:06.10 | 3:31.00 | 139960 | 155784
15 | 34:37.10 | 0:31.55 | 155785 | 158164
16 | 35:08.65 | 6:57.21 | 158165 | 189460
17 | 42:06.11 | 0:10.50 | 189461 | 190260
18 | 42:16.61 | 0:47.26 | 190261 | 193811
19 | 43:04.12 | 1:12.72 | 193812 | 199283
20 | 44:17.09 | 2:00.01 | 199284 | 208284
21 | 46:17.10 | 2:02.51 | 208285 | 217485
22 | 48:19.61 | 4:11.27 | 217486 | 236337


Range status and errors

Selected range

Filename C:\EACRip\HANDEL\Handel - Poro (Konrad Junghanel) (2006)\CD3\Handel - Poro (Disc 3) - Konrad Junghanel.wav

Peak level 100.0 %
Extraction speed 8.4 X
Range quality 100.0 %
Test CRC 6447F0E6
Copy CRC 6447F0E6
Copy OK

No errors occurred


AccurateRip summary

Track 1 accurately ripped (confidence 1) [BBB17E1B] (AR v2)
Track 2 accurately ripped (confidence 1) [EBA2F015] (AR v2)
Track 3 accurately ripped (confidence 1) [3EF6D3A0] (AR v2)
Track 4 accurately ripped (confidence 1) [A97A66A5] (AR v2)
Track 5 accurately ripped (confidence 1) [A7A5E6AB] (AR v2)
Track 6 accurately ripped (confidence 1) [9524FBCB] (AR v2)
Track 7 accurately ripped (confidence 1) [3C5A9EE1] (AR v2)
Track 8 accurately ripped (confidence 1) [4A1FB36B] (AR v2)
Track 9 accurately ripped (confidence 1) [6BB8A807] (AR v2)
Track 10 accurately ripped (confidence 1) [01440D85] (AR v2)
Track 11 accurately ripped (confidence 1) [8C7F3017] (AR v2)
Track 12 accurately ripped (confidence 1) [20B171C8] (AR v2)
Track 13 accurately ripped (confidence 1) [3F8B013C] (AR v2)
Track 14 accurately ripped (confidence 1) [DDA2FA32] (AR v2)
Track 15 accurately ripped (confidence 1) [F99CB7DA] (AR v2)
Track 16 accurately ripped (confidence 1) [201CBE11] (AR v2)
Track 17 accurately ripped (confidence 1) [EB4072F7] (AR v2)
Track 18 accurately ripped (confidence 1) [0B4F55C9] (AR v2)
Track 19 accurately ripped (confidence 1) [21C01D2E] (AR v2)
Track 20 accurately ripped (confidence 1) [E711E853] (AR v2)
Track 21 accurately ripped (confidence 1) [D60C9060] (AR v2)
Track 22 accurately ripped (confidence 1) [ACFDEDC7] (AR v2)

All tracks accurately ripped

End of status report

–– CUETools DB Plugin V2.1.6

[CTDB TOCID: ulhNz3XuQReBuHvx2lWQpBtLZho-] disk not present in database
Submit result: ulhNz3XuQReBuHvx2lWQpBtLZho- has been uploaded


==== Log checksum C8179D0218B1D542EFE6231D45B420C48EE6F56AF07BE04F65302239C0488958 ====

Performers:
Poro: William Towers, countertenor
Cleofide: Jutta Böhnert, soprano
Erissena: Franziska Gottwald, alto
Gandarte: Andrew Radley, countertenor
Alessandro: Thomas Piffka, tenor
Timagene: Torben Jürgens, bass

Akademie für Alte Musik Berlin (on period instruments)
Conductor: Konrad Junghänel

Thanks to the Original ripper (unknown)!

Download: