Subcategories

Airto Moreira - The Other Side Of This (1992) [Re-Up]

Posted By: tiburon
Airto Moreira - The Other Side Of This (1992) [Re-Up]

Airto Moreira - The Other Side Of This (1992)
EAC 0.99pb4 | FLAC tracks level 8 | Cue+Log+M3U | Full Scans 300dpi | 354MB + 5% Recovery
Genre: World Fusion, Ethnic

Using voice, drum, whistle, chimes, shakers, rattle, tambourine, and didgeridoo, Airto and company make music that comes from all regions and belongs to none. These are songs for ritual and healing, based on many cultures. The mood is ethereal, yet because of the predominance of percussion, also powerful. New age music with punch.
Track List
01. Endless Cycle 4:00
02. Tumbleweed 5:20
03. Back Streets Of Havana 2:44
04. Healing Sounds 2:42
05. The Underwater People 8:32
06. Old Man's Song 2:04
07. Hey Ya 4:06
08. When Angels Cry 4:18
09. Dom-Um (A Good Friend) 6:00
10. Street Reunion 2:56
11. Mirror Of The Past 6:12
12. Sedonia's Circle 3:31
13. Terra E Mar 6:03

musicians
Airto Moreira - percussion, vocals, bells, whistle, berimbau, didjeridu, flute
Diana Moreira - vocals and hand claps
Mickey Hart - wood, vocals, rattles, shakers and tibeatan bowl
Zakir Hussain - tabla, wood
Flora Purim - vocals
Babatunde Olatunji - wood
Kitaro - wood, stomping and vocals
T.H. Vinayakram - ghatam
Frank Colon - drums, shekere and vocals
Giovanni Hidalgo - drums, cowbell, shekere and background vocals
Caryl Ohrbach - vocals, franme drum
Rose Solomon - vocals
Cheryl McEnaney - vocals
Sedonia Cahill - frame drum and vocals
Justine Toms - frame drum and vocals
Margaret Barkley - frame drum and vocals
Margie Clark - frame drum and vocals
Leah Martino - frame drum and vocals
K.C. Ross - frame drum and vocals
Jana Holmer - frame drum and vocals
Amrita Blain - frame drum and vocals
Verna Yater - vocals

Produced by Mickey Hart


Exact Audio Copy V0.99 prebeta 4 from 23. January 2008

EAC extraction logfile from 10. March 2008, 4:03

Airto Moreira / The Other Side Of This

Used drive : HP DVD Writer 640v Adapter: 7 ID: 1

Read mode : Secure
Utilize accurate stream : Yes
Defeat audio cache : Yes
Make use of C2 pointers : No

Read offset correction : 618
Overread into Lead-In and Lead-Out : No
Fill up missing offset samples with silence : Yes
Delete leading and trailing silent blocks : No
Null samples used in CRC calculations : Yes
Used interface : Installed external ASPI interface
Gap handling : Appended to previous track

Used output format : User Defined Encoder
Selected bitrate : 192 kBit/s
Quality : High
Add ID3 tag : No
Command line compressor : G:\Program Files\MEDIA\filters\Flac official\FLAC\flac.exe
Additional command line options : -8 -V -T "ARTIST=%a" -T "TITLE=%t" -T "ALBUM=%g" -T "DATE=%y" -T "TRACKNUMBER=%n" -T "GENRE=%m" -T "COMMENT=EAC FLAC -8" %s


TOC of the extracted CD

Track | Start | Length | Start sector | End sector
––––––––––––––––––––––––––––-
1 | 0:00.32 | 4:02.58 | 32 | 18239
2 | 4:03.15 | 5:23.12 | 18240 | 42476
3 | 9:26.27 | 2:46.58 | 42477 | 54984
4 | 12:13.10 | 2:42.35 | 54985 | 67169
5 | 14:55.45 | 8:32.50 | 67170 | 105619
6 | 23:28.20 | 2:04.35 | 105620 | 114954
7 | 25:32.55 | 4:05.70 | 114955 | 133399
8 | 29:38.50 | 4:18.05 | 133400 | 152754
9 | 33:56.55 | 5:59.42 | 152755 | 179721
10 | 39:56.22 | 2:59.28 | 179722 | 193174
11 | 42:55.50 | 6:12.50 | 193175 | 221124
12 | 49:08.25 | 3:31.42 | 221125 | 236991
13 | 52:39.67 | 6:03.40 | 236992 | 264256


Track 1

Filename E:\uTORRENT\ups\Airto Moreira - The Other Side of This (1992) [FLAC]\01 - Endless Cycle.wav

Pre-gap length 0:00:02.32

Peak level 84.0 %
Track quality 100.0 %
Test CRC 60AAC327
Copy CRC 60AAC327
Track not present in AccurateRip database
Copy OK

Track 2

Filename E:\uTORRENT\ups\Airto Moreira - The Other Side of This (1992) [FLAC]\02 - Tumbleweed.wav

Pre-gap length 0:00:07.65

Peak level 84.4 %
Track quality 100.0 %
Test CRC 08D5B8F0
Copy CRC 08D5B8F0
Track not present in AccurateRip database
Copy OK

Track 3

Filename E:\uTORRENT\ups\Airto Moreira - The Other Side of This (1992) [FLAC]\03 - Back Streets of Havana.wav

Pre-gap length 0:00:07.65

Peak level 95.5 %
Track quality 100.0 %
Test CRC B167DC1E
Copy CRC B167DC1E
Track not present in AccurateRip database
Copy OK

Track 4

Filename E:\uTORRENT\ups\Airto Moreira - The Other Side of This (1992) [FLAC]\04 - Healing Sounds.wav

Pre-gap length 0:00:07.65

Peak level 14.2 %
Track quality 100.0 %
Test CRC D6E249C4
Copy CRC D6E249C4
Track not present in AccurateRip database
Copy OK

Track 5

Filename E:\uTORRENT\ups\Airto Moreira - The Other Side of This (1992) [FLAC]\05 - The Underwater People.wav

Pre-gap length 0:00:07.65

Peak level 97.7 %
Track quality 100.0 %
Test CRC BEA741F4
Copy CRC BEA741F4
Track not present in AccurateRip database
Copy OK

Track 6

Filename E:\uTORRENT\ups\Airto Moreira - The Other Side of This (1992) [FLAC]\06 - Old Man's Song.wav

Pre-gap length 0:00:07.65

Peak level 79.1 %
Track quality 100.0 %
Test CRC A192FAEC
Copy CRC A192FAEC
Track not present in AccurateRip database
Copy OK

Track 7

Filename E:\uTORRENT\ups\Airto Moreira - The Other Side of This (1992) [FLAC]\07 - Hey Ya!.wav

Pre-gap length 0:00:07.65

Peak level 67.0 %
Track quality 100.0 %
Test CRC C8B5D3EF
Copy CRC C8B5D3EF
Track not present in AccurateRip database
Copy OK

Track 8

Filename E:\uTORRENT\ups\Airto Moreira - The Other Side of This (1992) [FLAC]\08 - When Angels Cry.wav

Pre-gap length 0:00:07.65

Peak level 26.7 %
Track quality 100.0 %
Test CRC D75AB895
Copy CRC D75AB895
Track not present in AccurateRip database
Copy OK

Track 9

Filename E:\uTORRENT\ups\Airto Moreira - The Other Side of This (1992) [FLAC]\09 - Dom-Um.wav

Pre-gap length 0:00:07.65

Peak level 88.1 %
Track quality 100.0 %
Test CRC 636D0E67
Copy CRC 636D0E67
Track not present in AccurateRip database
Copy OK

Track 10

Filename E:\uTORRENT\ups\Airto Moreira - The Other Side of This (1992) [FLAC]\10 - Street Reunion.wav

Pre-gap length 0:00:07.65

Peak level 75.1 %
Track quality 100.0 %
Test CRC 4487ED84
Copy CRC 4487ED84
Track not present in AccurateRip database
Copy OK

Track 11

Filename E:\uTORRENT\ups\Airto Moreira - The Other Side of This (1992) [FLAC]\11 - Mirror of the Past.wav

Pre-gap length 0:00:07.65

Peak level 35.0 %
Track quality 100.0 %
Test CRC 46EAA7AE
Copy CRC 46EAA7AE
Track not present in AccurateRip database
Copy OK

Track 12

Filename E:\uTORRENT\ups\Airto Moreira - The Other Side of This (1992) [FLAC]\12 - Sedonia's Circle.wav

Pre-gap length 0:00:07.65

Peak level 84.6 %
Track quality 100.0 %
Test CRC 0C09B15C
Copy CRC 0C09B15C
Track not present in AccurateRip database
Copy OK

Track 13

Filename E:\uTORRENT\ups\Airto Moreira - The Other Side of This (1992) [FLAC]\13 - Terra e Mar.wav

Pre-gap length 0:00:07.65

Peak level 30.6 %
Track quality 100.0 %
Test CRC 3C5E22DC
Copy CRC 3C5E22DC
Track not present in AccurateRip database
Copy OK


None of the tracks are present in the AccurateRip database

No errors occurred

End of status report


––––––––––––––––––––––––––––––––––––––––
Analyzed: Airto Moreira / The Other Side Of This
––––––––––––––––––––––––––––––––––––––––

DR Peak RMS Duration Track
––––––––––––––––––––––––––––––––––––––––
DR12 -1.51 dB -17.79 dB 4:03 01-Endless Cycle
DR16 -1.47 dB -21.92 dB 5:23 02-Tumbleweed
DR14 -0.40 dB -18.14 dB 2:47 03-Back Streets of Havana
DR9 -16.91 dB -32.31 dB 2:42 04-Healing Sounds
DR17 -0.20 dB -21.23 dB 8:33 05-The Underwater People
DR17 -2.03 dB -22.33 dB 2:04 06-Old Man's Song
DR16 -3.47 dB -24.61 dB 4:06 07-Hey Ya!
DR12 -11.44 dB -28.92 dB 4:18 08-When Angels Cry
DR15 -1.09 dB -19.93 dB 6:00 09-Dom-Um
DR15 -2.48 dB -20.58 dB 2:59 10-Street Reunion
DR8 -9.12 dB -20.06 dB 6:13 11-Mirror of the Past
DR15 -1.44 dB -19.36 dB 3:32 12-Sedonia's Circle
DR12 -10.27 dB -27.52 dB 6:04 13-Terra e Mar
––––––––––––––––––––––––––––––––––––––––

Number of tracks: 13
Official DR value: DR14

Samplerate: 44100 Hz
Channels: 2
Bits per sample: 16
Bitrate: 805 kbps
Codec: FLAC
================================================================================

Airto Moreira - The Other Side Of This (1992) [Re-Up]
Airto Moreira - The Other Side Of This (1992) [Re-Up]
Airto Moreira - The Other Side Of This (1992) [Re-Up]


Thanks to the original ripper