Tags
Language
Tags
June 2024
Su Mo Tu We Th Fr Sa
26 27 28 29 30 31 1
2 3 4 5 6 7 8
9 10 11 12 13 14 15
16 17 18 19 20 21 22
23 24 25 26 27 28 29
30 1 2 3 4 5 6

VA - Acid Jazz - The Complete Anthology: 1968/2010 (2010)

Posted By: Rtax
VA - Acid Jazz - The Complete Anthology: 1968/2010 (2010)

VA - Acid Jazz - The Complete Anthology: 1968/2010 (2010)
EAC Rip | FLAC (tracks, cue, log) - 1.1 GB | MP3 CBR 320 kbps - 419 MB
2:59:24 | Electronic, Acid Jazz, Trip Hop | Label: Music Brokers

Born at the end of the 60s, Acid Jazz is one of the most distinguished and seductive styles of all times. With its mix of soul, jazz, hip hop, funk and house, Acid Jazz attracts the attention of dance culture and those who likes good songs, well played, with fascinating arrangements. Acid Jazz Trilogy is a magnificent summary of this culture as it travels through the origins of the genre, with Joe Bataan and Cal Tjader, to the absolute classics (such as the Brand New Heavies, Brooklyn Funk Essentials, Incognito and many others) and the evolution of the genre, where Acid Jazz combines with electronic music. Acid Jazz Trilogy is an album out of series, a very valuable piece to collect and enjoy.

Disc: 1
1 Brooklyn Funk Essentials - the Creator Has a Mas
2 The Brand New Heavies - Never Stop
3 Jhelisa - Whirl Keeps Turning
4 The James Taylor Quartet - Love Will Keep Us Tog
5 Incognito - Step Aside
6 Snowboy Feat. Anna Ross - Girl Overboard
7 Vibraphonic - Heavy Vibes
8 The Brand New Heavies - Dream Come True
9 Mister Exe Feat. Mica Paris - One Million Smiles
10 Mother Earth - Jesse
11 New Jersey Kings - the Latin One
12 Night Trains - Lovesick
13 Greenfinger - Dr. Bong
14 The Quiet Boys Feat. Galliano - Let the Good Tim

Disc: 2
1 Joe Bataan - Call My Name
2 Cal Tjader - Solar Heat
3 Black Sugar - Understanding
4 Banda Uniao Black - Na Palma Na Mao
5 Eddie Bo - Hook and Sling
6 Logia Sarabanda - Cajon de Castanas
7 Joe Bataan - Johnny's No Good
8 Eddie Long - It Don't Make Sense But Sure Sounds
9 Armando Peraza - Viva Peraza
10 Los Far Fen - Camina No Vueles
11 Black Merda - Take a Little Time
12 Los Fulanos - I Like It Like That
13 Gregorio Segura - Distorsionado
14 Conjunto Estiff - Tom Jazz

Disc: 3
1 Von Renauld - Soul Train
2 Glambeats Corp. - Paradise
3 Herbie Garrett - Capuccino
4 Monkmasters - in Walked Bud (Remix)
5 Groovy Waters - No War
6 Render - Fly with Me
7 Adabela - Sand and the Sea
8 Von Mondo - Revelation
9 Von Renauld - All There Is
10 Von Mondo - Lovely Night
11 Bop Journey - Latin Jazz Club
12 Von Renauld - Child's Play
13 Von Mondo Feat Adabela - Spark
14 Lalann - Jazz Boutique
Exact Audio Copy V1.6 from 23. October 2020

EAC extraction logfile from 8. April 2023, 17:00

- / Acid Jazz: The Complete Anthology: 1968/2010

Used drive : HL-DT-STBD-RE WH14NS40 Adapter: 1 ID: 1

Read mode : Secure
Utilize accurate stream : Yes
Defeat audio cache : Yes
Make use of C2 pointers : No

Read offset correction : 6
Overread into Lead-In and Lead-Out : No
Fill up missing offset samples with silence : Yes
Delete leading and trailing silent blocks : No
Null samples used in CRC calculations : Yes
Used interface : Native Win32 interface for Win NT & 2000
Gap handling : Appended to previous track

Used output format : User Defined Encoder
Selected bitrate : 1024 kBit/s
Quality : High
Add ID3 tag : No
Command line compressor : C:\Program Files (x86)\Exact Audio Copy\Flac\flac.exe
Additional command line options : -8 -V -T "ARTIST=%artist%" -T "TITLE=%title%" -T "ALBUM=%albumtitle%" -T "DATE=%year%" -T "TRACKNUMBER=%tracknr%" -T "GENRE=%genre%" -T "PERFORMER=%albuminterpret%" -T "COMPOSER=%composer%" -T "ALBUMARTIST=%albumartist%" -T "DISCNUMBER=%cdnumber%" -T "TOTALDISCS=%totalcds%" -T "TOTALTRACKS=%numtracks%" -T "COMMENT=%comment%" %source% -o %dest%


TOC of the extracted CD

Track | Start | Length | Start sector | End sector
––––––––––––––––––––––––––––-
1 | 0:00.00 | 5:50.56 | 0 | 26305
2 | 5:50.56 | 3:46.32 | 26306 | 43287
3 | 9:37.13 | 3:25.17 | 43288 | 58679
4 | 13:02.30 | 4:06.69 | 58680 | 77198
5 | 17:09.24 | 5:57.05 | 77199 | 103978
6 | 23:06.29 | 7:20.08 | 103979 | 136986
7 | 30:26.37 | 4:00.04 | 136987 | 154990
8 | 34:26.41 | 5:32.36 | 154991 | 179926
9 | 39:59.02 | 5:47.72 | 179927 | 206023
10 | 45:46.74 | 4:56.20 | 206024 | 228243
11 | 50:43.19 | 4:47.50 | 228244 | 249818
12 | 55:30.69 | 4:23.08 | 249819 | 269551
13 | 59:54.02 | 3:58.14 | 269552 | 287415
14 | 63:52.16 | 6:10.35 | 287416 | 315200


Track 1

Filename C:\CDrips\VA - Acid Jazz. The complete Anthology 1968-2010\CD 1. Golden Era\01- Brooklyn Funk Essentials - The Creator Has a Master Plan.wav

Pre-gap length 0:00:02.00

Peak level 98.9 %
Extraction speed 1.2 X
Track quality 100.0 %
Test CRC B2DCCD45
Copy CRC B2DCCD45
Accurately ripped (confidence 12) [95F23874] (AR v2)
Copy OK

Track 2

Filename C:\CDrips\VA - Acid Jazz. The complete Anthology 1968-2010\CD 1. Golden Era\02- The Brand New Heavies - Never Stop.wav

Peak level 98.8 %
Extraction speed 1.1 X
Track quality 99.9 %
Test CRC 991CDC42
Copy CRC 991CDC42
Accurately ripped (confidence 12) [40F29301] (AR v2)
Copy OK

Track 3

Filename C:\CDrips\VA - Acid Jazz. The complete Anthology 1968-2010\CD 1. Golden Era\03- Jhelisa - Whirl Keeps Turning.wav

Peak level 98.8 %
Extraction speed 1.3 X
Track quality 100.0 %
Test CRC D41617D5
Copy CRC D41617D5
Accurately ripped (confidence 12) [06E655EC] (AR v2)
Copy OK

Track 4

Filename C:\CDrips\VA - Acid Jazz. The complete Anthology 1968-2010\CD 1. Golden Era\04- The James Taylor Quartet - Love Will Keep Us Together.wav

Peak level 98.8 %
Extraction speed 1.4 X
Track quality 100.0 %
Test CRC 80D9D897
Copy CRC 80D9D897
Accurately ripped (confidence 12) [7A25D56B] (AR v2)
Copy OK

Track 5

Filename C:\CDrips\VA - Acid Jazz. The complete Anthology 1968-2010\CD 1. Golden Era\05- Incognito - Step Aside.wav

Peak level 78.9 %
Extraction speed 1.6 X
Track quality 100.0 %
Test CRC DDA93EBC
Copy CRC DDA93EBC
Accurately ripped (confidence 11) [E5ADB6CC] (AR v2)
Copy OK

Track 6

Filename C:\CDrips\VA - Acid Jazz. The complete Anthology 1968-2010\CD 1. Golden Era\06- Snowboy Feat. Anna Ross - Girl Overboard.wav

Peak level 98.9 %
Extraction speed 1.8 X
Track quality 100.0 %
Test CRC 5550064A
Copy CRC 5550064A
Accurately ripped (confidence 11) [6C582891] (AR v2)
Copy OK

Track 7

Filename C:\CDrips\VA - Acid Jazz. The complete Anthology 1968-2010\CD 1. Golden Era\07- Vibraphonic - Heavy Vibes.wav

Peak level 98.8 %
Extraction speed 1.8 X
Track quality 100.0 %
Test CRC 087E4223
Copy CRC 087E4223
Accurately ripped (confidence 11) [7363BB53] (AR v2)
Copy OK

Track 8

Filename C:\CDrips\VA - Acid Jazz. The complete Anthology 1968-2010\CD 1. Golden Era\08- The Brand New Heavies - Dream Come True.wav

Peak level 97.7 %
Extraction speed 1.9 X
Track quality 100.0 %
Test CRC 1ED39756
Copy CRC 1ED39756
Accurately ripped (confidence 10) [6FBD02E7] (AR v2)
Copy OK

Track 9

Filename C:\CDrips\VA - Acid Jazz. The complete Anthology 1968-2010\CD 1. Golden Era\09- Mister Exe Feat. Mica Paris - One Million Smiles.wav

Peak level 98.8 %
Extraction speed 2.0 X
Track quality 100.0 %
Test CRC A7705697
Copy CRC A7705697
Accurately ripped (confidence 11) [4F022784] (AR v2)
Copy OK

Track 10

Filename C:\CDrips\VA - Acid Jazz. The complete Anthology 1968-2010\CD 1. Golden Era\10- Mother Earth - Jesse.wav

Peak level 98.9 %
Extraction speed 2.1 X
Track quality 100.0 %
Test CRC C3698171
Copy CRC C3698171
Accurately ripped (confidence 11) [A3F6A760] (AR v2)
Copy OK

Track 11

Filename C:\CDrips\VA - Acid Jazz. The complete Anthology 1968-2010\CD 1. Golden Era\11- New Jersey Kings - The Latin One.wav

Peak level 98.8 %
Extraction speed 2.2 X
Track quality 100.0 %
Test CRC B9294CD0
Copy CRC B9294CD0
Accurately ripped (confidence 11) [C6EB4CE0] (AR v2)
Copy OK

Track 12

Filename C:\CDrips\VA - Acid Jazz. The complete Anthology 1968-2010\CD 1. Golden Era\12- Night Trains - Lovesick.wav

Peak level 98.9 %
Extraction speed 2.2 X
Track quality 100.0 %
Test CRC 756A91DA
Copy CRC 756A91DA
Accurately ripped (confidence 9) [2C189A4E] (AR v2)
Copy OK

Track 13

Filename C:\CDrips\VA - Acid Jazz. The complete Anthology 1968-2010\CD 1. Golden Era\13- Greenfinger - Dr. Bong.wav

Peak level 95.8 %
Extraction speed 2.2 X
Track quality 100.0 %
Test CRC 0A64A92B
Copy CRC 0A64A92B
Accurately ripped (confidence 10) [47175758] (AR v2)
Copy OK

Track 14

Filename C:\CDrips\VA - Acid Jazz. The complete Anthology 1968-2010\CD 1. Golden Era\14- The Quiet Boys Feat. Galliano - Let the Good Times Roll.wav

Peak level 96.1 %
Extraction speed 1.1 X
Track quality 99.7 %
Test CRC DF24464F
Copy CRC 581BA9F5
Accurately ripped (confidence 6) [1B8D92ED] (AR v2)
Copy OK


All tracks accurately ripped

No errors occurred

End of status report

–– CUETools DB Plugin V2.1.6

[CTDB TOCID: IAntAwLhpAJLJBYt52S7FbP5UdM-] found
Submit result: IAntAwLhpAJLJBYt52S7FbP5UdM- has been confirmed
Track | CTDB Status
1 | (20/23) Accurately ripped
2 | (23/23) Accurately ripped
3 | (23/23) Accurately ripped
4 | (23/23) Accurately ripped
5 | (23/23) Accurately ripped
6 | (23/23) Accurately ripped
7 | (23/23) Accurately ripped
8 | (23/23) Accurately ripped
9 | (23/23) Accurately ripped
10 | (23/23) Accurately ripped
11 | (23/23) Accurately ripped
12 | (23/23) Accurately ripped
13 | (22/23) Accurately ripped
14 | (17/23) Accurately ripped


==== Log checksum FD9DF52431089D376ECF1B5866ED8B9CC22332E1BDB44015B7D934CD9E107DA4 ====


Exact Audio Copy V1.6 from 23. October 2020

EAC extraction logfile from 8. April 2023, 18:14

- / Acid Jazz: The Complete Anthology: 1968/2010

Used drive : HL-DT-STBD-RE WH14NS40 Adapter: 1 ID: 1

Read mode : Secure
Utilize accurate stream : Yes
Defeat audio cache : Yes
Make use of C2 pointers : No

Read offset correction : 6
Overread into Lead-In and Lead-Out : No
Fill up missing offset samples with silence : Yes
Delete leading and trailing silent blocks : No
Null samples used in CRC calculations : Yes
Used interface : Native Win32 interface for Win NT & 2000
Gap handling : Appended to previous track

Used output format : User Defined Encoder
Selected bitrate : 1024 kBit/s
Quality : High
Add ID3 tag : No
Command line compressor : C:\Program Files (x86)\Exact Audio Copy\Flac\flac.exe
Additional command line options : -8 -V -T "ARTIST=%artist%" -T "TITLE=%title%" -T "ALBUM=%albumtitle%" -T "DATE=%year%" -T "TRACKNUMBER=%tracknr%" -T "GENRE=%genre%" -T "PERFORMER=%albuminterpret%" -T "COMPOSER=%composer%" -T "ALBUMARTIST=%albumartist%" -T "DISCNUMBER=%cdnumber%" -T "TOTALDISCS=%totalcds%" -T "TOTALTRACKS=%numtracks%" -T "COMMENT=%comment%" %source% -o %dest%


TOC of the extracted CD

Track | Start | Length | Start sector | End sector
––––––––––––––––––––––––––––-
1 | 0:00.00 | 4:38.12 | 0 | 20861
2 | 4:38.12 | 2:39.24 | 20862 | 32810
3 | 7:17.36 | 5:07.65 | 32811 | 55900
4 | 12:25.26 | 2:56.69 | 55901 | 69169
5 | 15:22.20 | 3:38.53 | 69170 | 85572
6 | 19:00.73 | 3:09.17 | 85573 | 99764
7 | 22:10.15 | 3:36.54 | 99765 | 116018
8 | 25:46.69 | 3:31.05 | 116019 | 131848
9 | 29:17.74 | 4:31.23 | 131849 | 152196
10 | 33:49.22 | 3:07.32 | 152197 | 166253
11 | 36:56.54 | 3:58.23 | 166254 | 184126
12 | 40:55.02 | 3:28.38 | 184127 | 199764
13 | 44:23.40 | 2:32.43 | 199765 | 211207
14 | 46:56.08 | 5:42.69 | 211208 | 236926


Track 1

Filename C:\CDrips\VA - Acid Jazz. The complete Anthology 1968-2010\CD 2. Roots\01- Joe Bataan - Call My Name.wav

Pre-gap length 0:00:02.00

Peak level 83.1 %
Extraction speed 1.9 X
Track quality 100.0 %
Test CRC F97A97DF
Copy CRC F97A97DF
Accurately ripped (confidence 9) [17AFB1EA] (AR v2)
Copy OK

Track 2

Filename C:\CDrips\VA - Acid Jazz. The complete Anthology 1968-2010\CD 2. Roots\02- Cal Tjader - Solar Heat.wav

Peak level 90.4 %
Extraction speed 2.0 X
Track quality 100.0 %
Test CRC BAB47DAC
Copy CRC BAB47DAC
Accurately ripped (confidence 9) [C1569EF5] (AR v2)
Copy OK

Track 3

Filename C:\CDrips\VA - Acid Jazz. The complete Anthology 1968-2010\CD 2. Roots\03- Black Sugar - Understanding.wav

Peak level 84.4 %
Extraction speed 1.3 X
Track quality 100.0 %
Test CRC 251BF004
Copy CRC 251BF004
Accurately ripped (confidence 10) [BE5EBD25] (AR v2)
Copy OK

Track 4

Filename C:\CDrips\VA - Acid Jazz. The complete Anthology 1968-2010\CD 2. Roots\04- Banda União Black - Na Palma Da Mão.wav

Peak level 87.0 %
Extraction speed 1.1 X
Track quality 99.9 %
Test CRC 00C9314E
Copy CRC 00C9314E
Accurately ripped (confidence 10) [51C3D8CA] (AR v2)
Copy OK

Track 5

Filename C:\CDrips\VA - Acid Jazz. The complete Anthology 1968-2010\CD 2. Roots\05- Eddie Bo - Hook and Sling.wav

Peak level 85.9 %
Extraction speed 1.4 X
Track quality 100.0 %
Test CRC 34554D1C
Copy CRC 34554D1C
Accurately ripped (confidence 10) [A7B5D63E] (AR v2)
Copy OK

Track 6

Filename C:\CDrips\VA - Acid Jazz. The complete Anthology 1968-2010\CD 2. Roots\06- La Logia Sarabanda - Cajón de Castañas.wav

Peak level 86.6 %
Extraction speed 1.2 X
Track quality 99.9 %
Test CRC 4F8B9B0A
Copy CRC 4F8B9B0A
Accurately ripped (confidence 10) [620E476A] (AR v2)
Copy OK

Track 7

Filename C:\CDrips\VA - Acid Jazz. The complete Anthology 1968-2010\CD 2. Roots\07- Joe Bataan - Johnny's no Good.wav

Peak level 87.5 %
Extraction speed 1.6 X
Track quality 100.0 %
Test CRC 322CEF2F
Copy CRC 322CEF2F
Accurately ripped (confidence 10) [470826DD] (AR v2)
Copy OK

Track 8

Filename C:\CDrips\VA - Acid Jazz. The complete Anthology 1968-2010\CD 2. Roots\08- Eddie Long - It Don't Make Sense but Sure Sounds Good.wav

Peak level 95.6 %
Extraction speed 1.6 X
Track quality 100.0 %
Test CRC 92587685
Copy CRC 92587685
Accurately ripped (confidence 10) [398750E7] (AR v2)
Copy OK

Track 9

Filename C:\CDrips\VA - Acid Jazz. The complete Anthology 1968-2010\CD 2. Roots\09- Armando Peraza - Viva Peraza.wav

Peak level 100.0 %
Extraction speed 1.8 X
Track quality 100.0 %
Test CRC C8FDAA1C
Copy CRC C8FDAA1C
Accurately ripped (confidence 10) [549AF26E] (AR v2)
Copy OK

Track 10

Filename C:\CDrips\VA - Acid Jazz. The complete Anthology 1968-2010\CD 2. Roots\10- Los Far Fen - Camina no Vueles.wav

Peak level 77.2 %
Extraction speed 1.7 X
Track quality 100.0 %
Test CRC AF880CE0
Copy CRC AF880CE0
Accurately ripped (confidence 10) [7D17E3D4] (AR v2)
Copy OK

Track 11

Filename C:\CDrips\VA - Acid Jazz. The complete Anthology 1968-2010\CD 2. Roots\11- Black Merda - Take a Little Time.wav

Peak level 98.8 %
Extraction speed 1.9 X
Track quality 100.0 %
Test CRC 4167CC87
Copy CRC 4167CC87
Accurately ripped (confidence 10) [16294278] (AR v2)
Copy OK

Track 12

Filename C:\CDrips\VA - Acid Jazz. The complete Anthology 1968-2010\CD 2. Roots\12- Los Fulanos - I Like It Like That.wav

Peak level 98.0 %
Extraction speed 1.6 X
Track quality 99.9 %
Test CRC 42BFAF67
Copy CRC 42BFAF67
Accurately ripped (confidence 10) [58235635] (AR v2)
Copy OK

Track 13

Filename C:\CDrips\VA - Acid Jazz. The complete Anthology 1968-2010\CD 2. Roots\13- Gregorio Segura - Distorsionado.wav

Peak level 100.0 %
Extraction speed 1.8 X
Track quality 100.0 %
Test CRC 216BE26D
Copy CRC 216BE26D
Accurately ripped (confidence 10) [87C89CB7] (AR v2)
Copy OK

Track 14

Filename C:\CDrips\VA - Acid Jazz. The complete Anthology 1968-2010\CD 2. Roots\14- Conjunto Estif - Tom Jazz.wav

Peak level 100.0 %
Extraction speed 2.1 X
Track quality 100.0 %
Test CRC ED20FE31
Copy CRC ED20FE31
Accurately ripped (confidence 10) [4D117C93] (AR v2)
Copy OK


All tracks accurately ripped

No errors occurred

End of status report

–– CUETools DB Plugin V2.1.6

[CTDB TOCID: PIXW_vlkxJ7e3LYgDpLOXsECDQk-] found
Submit result: PIXW_vlkxJ7e3LYgDpLOXsECDQk- has been confirmed
Track | CTDB Status
1 | (26/27) Accurately ripped
2 | (26/27) Accurately ripped
3 | (27/27) Accurately ripped
4 | (27/27) Accurately ripped
5 | (27/27) Accurately ripped
6 | (27/27) Accurately ripped
7 | (27/27) Accurately ripped
8 | (27/27) Accurately ripped
9 | (27/27) Accurately ripped
10 | (27/27) Accurately ripped
11 | (27/27) Accurately ripped
12 | (27/27) Accurately ripped
13 | (27/27) Accurately ripped
14 | (27/27) Accurately ripped


==== Log checksum 3C05372B85E6E2B89F4417749C2720CC88E63AECB482DD2B43998DA81D581961 ====