Bon Jovi - 7800° Fahrenheit (1985) {West German pressing} **[REPOST]**

Posted By: TestTickles
Bon Jovi - 7800° Fahrenheit (1985) {West German pressing} **[REPOST]**

Bon Jovi - 7800° Fahrenheit (1985) (West German pressing)
EAC Rip | FLAC with CUE and log | scans | 328 mb
MP3 CBR 320kbps | RAR | 124 mb
Genre: hard rock, classic rock

7800° Fahrenheit is the 1985 second album from New Jersey band Bon Jovi. Founded by Jon Bon Jovi, this is the album which features "In And Out Of Love", "Only Lonely", "Silent Night", "The Price Of Love", and "The Hardest Part Is The Night." This is the first pressing of the album on compact disc released in West Germany.
Bon Jovi's sophomore release found the New Jersey group continuing with its engaging mix of hard rock dynamics and blatant pop-metal overtones, and primed the pump for the coming popular explosion of Slippery When Wet. Ever since the keyboard call to arms of the breakthrough "Runaway," Bon Jovi had understood that real success lay in a billowing smoke, soft-focus derivation of true metal, where Journey-style synthesizers and soft rock chorus vocals were the name of the game. To that end, 7800° Fahrenheit tempered its black-leather rock & roll with a rudimentary form of the sound that would make Bon Jovi superstars. They puffed out their chests for the groupie-groping, Mötley Crüe-style catcalls of "In and Out of Love" and made sure "King of the Mountain" rumbled with boys-night-out bravado. But they seemed much more comfortable with the twittering ballad "Silent Night" or "Price of Love," where arena-ready riffing met smoke machine keys and vocal trills. There was even "Tokyo Road," a valiant attempt at the epic scope of Springsteen that featured a Japanese-language intro and full-on character development. It was in these moments – when the tenets of metal tried on the hairstyles of pop – that 7800° Fahrenheit burned its brightest; the professional songwriting and increased cash flow of Slippery When Wet just made the existing mercury burst.

Bon Jovi - 7800° Fahrenheit (1985) {West German pressing} **[REPOST]**

01. In And Out Of Love
02. Price Of Love
03. Only Lonely
04. King Of The Mountain
05. Silent Night
06. Tokyo Road
07. Hardest Part Is The Night
08. Always Run To You
09. To The Fire
10. Secret Dreams

Bon Jovi - 7800° Fahrenheit (1985) {West German pressing} **[REPOST]**


EAC extraction logfile from 26. August 2006, 19:22 for CD
Bon Jovi / 7800° Fahrenheit

Used drive : LITE-ON DVDRW SOHW-1633S Adapter: 0 ID: 0
Read mode : Secure with NO C2, accurate stream, disable cache
Read offset correction : 12
Overread into Lead-In and Lead-Out : No

Used output format : Internal WAV Routines
44.100 Hz; 16 Bit; Stereo

Other options :
Fill up missing offset samples with silence : Yes
Delete leading and trailing silent blocks : No
Installed external ASPI interface


Track 1
Filename D:\FLAC\Bon Jovi - 7800 Fahrenheit (1985) [FLAC] (West German pressing)\01 - In And Out Of Love.wav

Pre-gap length 0:00:02.42

Peak level 95.6 %
Track quality 100.0 %
Test CRC 48876AE1
Copy CRC 48876AE1
Copy OK

Track 2
Filename D:\FLAC\Bon Jovi - 7800 Fahrenheit (1985) [FLAC] (West German pressing)\02 - Price Of Love.wav

Peak level 97.1 %
Track quality 100.0 %
Test CRC 35F9FFA8
Copy CRC 35F9FFA8
Copy OK

Track 3
Filename D:\FLAC\Bon Jovi - 7800 Fahrenheit (1985) [FLAC] (West German pressing)\03 - Only Lonely.wav

Pre-gap length 0:00:01.10

Peak level 93.3 %
Track quality 100.0 %
Test CRC 9537F203
Copy CRC 9537F203
Copy OK

Track 4
Filename D:\FLAC\Bon Jovi - 7800 Fahrenheit (1985) [FLAC] (West German pressing)\04 - King Of The Mountain.wav

Pre-gap length 0:00:01.90

Peak level 98.5 %
Track quality 100.0 %
Test CRC 67538537
Copy CRC 67538537
Copy OK

Track 5
Filename D:\FLAC\Bon Jovi - 7800 Fahrenheit (1985) [FLAC] (West German pressing)\05 - Silent Night.wav

Pre-gap length 0:00:01.29

Peak level 79.7 %
Track quality 100.0 %
Test CRC EC0DCB45
Copy CRC EC0DCB45
Copy OK

Track 6
Filename D:\FLAC\Bon Jovi - 7800 Fahrenheit (1985) [FLAC] (West German pressing)\06 - Tokyo Road.wav

Pre-gap length 0:00:01.46

Peak level 78.3 %
Track quality 100.0 %
Test CRC 5EEB40DB
Copy CRC 5EEB40DB
Copy OK

Track 7
Filename D:\FLAC\Bon Jovi - 7800 Fahrenheit (1985) [FLAC] (West German pressing)\07 - Hardest Part Is The Night.wav

Pre-gap length 0:00:00.33

Peak level 73.0 %
Track quality 100.0 %
Test CRC 92645DD6
Copy CRC 92645DD6
Copy OK

Track 8
Filename D:\FLAC\Bon Jovi - 7800 Fahrenheit (1985) [FLAC] (West German pressing)\08 - Always Run To You.wav

Pre-gap length 0:00:01.96

Peak level 75.9 %
Track quality 100.0 %
Test CRC C8524F8C
Copy CRC C8524F8C
Copy OK

Track 9
Filename D:\FLAC\Bon Jovi - 7800 Fahrenheit (1985) [FLAC] (West German pressing)\09 - To The Fire.wav

Pre-gap length 0:00:01.04

Peak level 85.7 %
Track quality 100.0 %
Test CRC F029C42C
Copy CRC F029C42C
Copy OK

Track 10
Filename D:\FLAC\Bon Jovi - 7800 Fahrenheit (1985) [FLAC] (West German pressing)\10 - Secret Dreams.wav

Pre-gap length 0:00:01.42

Peak level 68.6 %
Track quality 100.0 %
Test CRC 381B8F6C
Copy CRC 381B8F6C
Copy OK

No errors occured


End of status report