Subcategories

Ely Guerra - Lotofire (1999) (2002 Omtown/EMI Mexico)

Posted By: TestTickles
Ely Guerra - Lotofire (1999) (2002 Omtown/EMI Mexico)

Ely Guerra - Lotofire (1999) (2002 Omtown/EMI Mexico)
EAC Rip | FLAC with CUE and log | scans | 367 mb
MP3 CBR 320kbps | RAR | 175 mb
Genre: Latin pop

Lotofire is the 1999 album by Mexican pop singer Elizabeth Guerra Vazquez, who is known as Ely Guerra. It was released on Omtown/EMI Mexico in the rest of North America in 2002 and was her third album, her second for the EMI familia.

Ely Guerra - Lotofire (1999) (2002 Omtown/EMI Mexico)

1. De La Calle (4:24)
2. Profundiad (5:08)
3. Yo No (4:48)
4. Vete (4:48)
5. Mejor Me Voy (3:24)
6. Tengo Frio (4:46)
7. Abusar (5:49)
8. Silencio (5:12)
9. El Tiempo (5:12)
10. El Mar (2:40)
11. Prometo Ser (3:20)

Produced by Andres Levin

Ely Guerra - Lotofire (1999) (2002 Omtown/EMI Mexico)


Exact Audio Copy V1.1 from 23. June 2015

EAC extraction logfile from 9. March 2017, 11:35

Ely Guerra / Lotofire

Used drive : TEAC DVD-ROM DV-28SW Adapter: 1 ID: 0

Read mode : Secure
Utilize accurate stream : Yes
Defeat audio cache : Yes
Make use of C2 pointers : No

Read offset correction : 6
Overread into Lead-In and Lead-Out : No
Fill up missing offset samples with silence : Yes
Delete leading and trailing silent blocks : No
Null samples used in CRC calculations : Yes
Used interface : Native Win32 interface for Win NT & 2000
Gap handling : Appended to previous track

Used output format : Internal WAV Routines
Sample format : 44.100 Hz; 16 Bit; Stereo


TOC of the extracted CD

Track | Start | Length | Start sector | End sector
––––––––––––––––––––––––––––-
1 | 0:00.00 | 4:25.05 | 0 | 19879
2 | 4:25.05 | 5:08.45 | 19880 | 43024
3 | 9:33.50 | 4:45.32 | 43025 | 64431
4 | 14:19.07 | 4:47.20 | 64432 | 85976
5 | 19:06.27 | 3:24.05 | 85977 | 101281
6 | 22:30.32 | 4:46.55 | 101282 | 122786
7 | 27:17.12 | 5:49.10 | 122787 | 148971
8 | 33:06.22 | 5:08.65 | 148972 | 172136
9 | 38:15.12 | 5:12.53 | 172137 | 195589
10 | 43:27.65 | 2:39.62 | 195590 | 207576
11 | 46:07.52 | 3:13.63 | 207577 | 222114


Track 1

Filename C:\My Documents\My FLAC\Ely Guerra - Lotofire (1999) [FLAC} (2002 Omtown, EMI Mexico)\01 - De La Calle.wav

Pre-gap length 0:00:02.00

Peak level 98.8 %
Extraction speed 2.8 X
Track quality 100.0 %
Test CRC 593EBAE0
Copy CRC 593EBAE0
Accurately ripped (confidence 3) [A4F19C9F] (AR v2)
Copy OK

Track 2

Filename C:\My Documents\My FLAC\Ely Guerra - Lotofire (1999) [FLAC} (2002 Omtown, EMI Mexico)\02 - Profundidad.wav

Pre-gap length 0:00:01.60

Peak level 99.8 %
Extraction speed 3.1 X
Track quality 100.0 %
Test CRC BF65962D
Copy CRC BF65962D
Accurately ripped (confidence 2) [AC693B3C] (AR v2)
Copy OK

Track 3

Filename C:\My Documents\My FLAC\Ely Guerra - Lotofire (1999) [FLAC} (2002 Omtown, EMI Mexico)\03 - Yo No.wav

Peak level 99.8 %
Extraction speed 3.4 X
Track quality 100.0 %
Test CRC 35B45DCA
Copy CRC 35B45DCA
Accurately ripped (confidence 3) [2652C560] (AR v2)
Copy OK

Track 4

Filename C:\My Documents\My FLAC\Ely Guerra - Lotofire (1999) [FLAC} (2002 Omtown, EMI Mexico)\04 - Vete.wav

Peak level 99.8 %
Extraction speed 3.6 X
Track quality 100.0 %
Test CRC 0206B551
Copy CRC 0206B551
Accurately ripped (confidence 3) [D537997C] (AR v2)
Copy OK

Track 5

Filename C:\My Documents\My FLAC\Ely Guerra - Lotofire (1999) [FLAC} (2002 Omtown, EMI Mexico)\05 - Mejor Me Voy.wav

Peak level 99.8 %
Extraction speed 3.5 X
Track quality 100.0 %
Test CRC 09F7F02A
Copy CRC 09F7F02A
Accurately ripped (confidence 3) [2EC21A11] (AR v2)
Copy OK

Track 6

Filename C:\My Documents\My FLAC\Ely Guerra - Lotofire (1999) [FLAC} (2002 Omtown, EMI Mexico)\06 - Tengo Frio.wav

Peak level 99.8 %
Extraction speed 4.2 X
Track quality 100.0 %
Test CRC A381715A
Copy CRC A381715A
Accurately ripped (confidence 3) [042D423E] (AR v2)
Copy OK

Track 7

Filename C:\My Documents\My FLAC\Ely Guerra - Lotofire (1999) [FLAC} (2002 Omtown, EMI Mexico)\07 - Abusar.wav

Peak level 99.8 %
Extraction speed 3.3 X
Track quality 100.0 %
Test CRC 1A896A49
Copy CRC 1A896A49
Accurately ripped (confidence 3) [1AA2A45B] (AR v2)
Copy OK

Track 8

Filename C:\My Documents\My FLAC\Ely Guerra - Lotofire (1999) [FLAC} (2002 Omtown, EMI Mexico)\08 - Silencio.wav

Peak level 99.8 %
Extraction speed 3.5 X
Track quality 100.0 %
Test CRC 8DC7DDA0
Copy CRC 8DC7DDA0
Accurately ripped (confidence 2) [2E76DDAD] (AR v2)
Copy OK

Track 9

Filename C:\My Documents\My FLAC\Ely Guerra - Lotofire (1999) [FLAC} (2002 Omtown, EMI Mexico)\09 - El Tiempo.wav

Peak level 99.8 %
Extraction speed 3.3 X
Track quality 99.9 %
Test CRC 3B380A73
Copy CRC 3B380A73
Accurately ripped (confidence 2) [42473637] (AR v2)
Copy OK

Track 10

Filename C:\My Documents\My FLAC\Ely Guerra - Lotofire (1999) [FLAC} (2002 Omtown, EMI Mexico)\10 - El Mar.wav

Peak level 85.8 %
Extraction speed 3.9 X
Track quality 100.0 %
Test CRC 8A6DF660
Copy CRC 8A6DF660
Accurately ripped (confidence 4) [E8B8AB54] (AR v1)
Copy OK

Track 11

Filename C:\My Documents\My FLAC\Ely Guerra - Lotofire (1999) [FLAC} (2002 Omtown, EMI Mexico)\11 - Prometo Ser.wav

Peak level 99.8 %
Extraction speed 4.6 X
Track quality 100.0 %
Test CRC 51FBAAAB
Copy CRC 51FBAAAB
Accurately ripped (confidence 4) [B74191C3] (AR v1)
Copy OK


All tracks accurately ripped

No errors occurred

End of status report

–– CUETools DB Plugin V2.1.6

[CTDB TOCID: g6U4q0Nxdfa_Gei.RLEoe2VZ5pI-] found
Submit result: g6U4q0Nxdfa_Gei.RLEoe2VZ5pI- has been confirmed
Track | CTDB Status
1 | (5/5) Accurately ripped
2 | (4/5) Accurately ripped
3 | (5/5) Accurately ripped
4 | (5/5) Accurately ripped
5 | (5/5) Accurately ripped
6 | (4/5) Accurately ripped, or (1/5) differs in 8 samples @03:31:28,03:33:26,03:33:70
7 | (5/5) Accurately ripped
8 | (5/5) Accurately ripped
9 | (5/5) Accurately ripped
10 | (4/5) Accurately ripped
11 | (4/5) Accurately ripped


==== Log checksum 4DC05B427523908F97632A66FB2CA6488829F2217034D8025B592E07734008A6 ====


Ely Guerra - Lotofire (1999) (2002 Omtown/EMI Mexico)