Tags
Language
Tags

Vaughan Mason & Crew - Bounce, Rock, Skate, Roll (1980/2022) [Official Digital Download]

Posted By: delpotro
Vaughan Mason & Crew - Bounce, Rock, Skate, Roll (1980/2022) [Official Digital Download]

Vaughan Mason & Crew - Bounce, Rock, Skate, Roll (1980/2022)
FLAC (tracks) 24-bit/44,1 kHz | Front Cover | Time - 37:42 minutes | 421 MB
Disco, Funk | Label: Crimson, Official Digital Download

Vaughan Mason is an influential disco-funk producer and musician who most notably released the 1980s roller skating anthem ‘Bounce, Rock, Skate, Roll’. The spectacular single was released on Brunswick records and has been sampled by dozens of artists ranging from Daft Punk, De La Soul to a Tribe Called Quest.

Tracklist:
1. Roller Skate (09:00)
2. Cravin' Your Body (05:26)
3. Thinking About You Baby (06:22)
4. We're Gonna Funk You Up (07:51)
5. Bounce, Rock, Skate, Roll I (03:42)
6. Bounce, Rock, Skate, Roll II (05:17)

foobar2000 1.4.1 / Dynamic Range Meter 1.1.1
log date: 2022-08-06 16:21:18

––––––––––––––––––––––––––––––––––––––––
Analyzed: Vaughan Mason and Crew / Bounce, Rock, Skate, Roll
––––––––––––––––––––––––––––––––––––––––

DR Peak RMS Duration Track
––––––––––––––––––––––––––––––––––––––––
DR9 -0.93 dB -12.40 dB 9:01 01-Roller Skate
DR7 -2.10 dB -11.24 dB 5:26 02-Cravin' Your Body
DR9 -2.00 dB -13.76 dB 6:23 03-Thinking About You Baby
DR8 -2.50 dB -12.02 dB 7:52 04-We're Gonna Funk You Up
DR7 -3.00 dB -11.40 dB 3:43 05-Bounce, Rock, Skate, Roll I
DR8 -3.00 dB -13.39 dB 5:18 06-Bounce, Rock, Skate, Roll II
––––––––––––––––––––––––––––––––––––––––

Number of tracks: 6
Official DR value: DR8

Samplerate: 44100 Hz
Channels: 2
Bits per sample: 24
Bitrate: 1486 kbps
Codec: FLAC
================================================================================


Thanks to the Original customer!