Tags
Language
Tags
June 2024
Su Mo Tu We Th Fr Sa
26 27 28 29 30 31 1
2 3 4 5 6 7 8
9 10 11 12 13 14 15
16 17 18 19 20 21 22
23 24 25 26 27 28 29
30 1 2 3 4 5 6

VA - Spiritual Jazz 15: A Tribute to 'Trane (2023) [Official Digital Download 24/96]

Posted By: delpotro
VA - Spiritual Jazz 15: A Tribute to 'Trane (2023) [Official Digital Download 24/96]

VA - Spiritual Jazz 15: A Tribute to 'Trane (2023)
FLAC (tracks) 24-bit/96 kHz | Front Cover | Time - 74:35 minutes | 1,32 GB
Spriritual Jazz, Modal Jazz | Label: Jazzman Records, Official Digital Download

Many artists achieve greatness but very few produce work that is so moving it's considered sacred. Whether you choose to call them hymns, psalms or spirituals, their songs are a healing force for troubled times. We feel close to these prophets, in recognition of their uncommon labours. It is as if they have given all of themselves, body and soul, through music.

We can safely say that our Spiritual Jazz series would not exist without the inspiration and leadership of the spiritual messiah that is John Coltrane. It can therefore only be right and proper that we dedicate a whole album to his legacy and lasting influence. Spiritual Jazz 15 – A Tribute to 'Trane shines a spotlight on the reverence in which the saxophonist is held in so many ways.

On one hand our selection displays cover versions of his songs performed by the musicians he inspired; disciples to Coltrane the messiah, who chose to give praise to the one who laid a foundation for them. The listener will also encounter original music written in honour of Coltrane that underlines the endless presence he has had among artists from different backgrounds and eras.

The preacher may have ascended to a higher plane, but his congregation is still right down here on the ground. Ten songs to lift the spirits of everyone, everywhere.

Tracklist:
01. Norman Connors - Welcome
02. Clifford Jordon - John Coltrane
03. Sonny Fortune - Ole
04. The Darwin Strickland Trio - Niami
05. Gilles Torrent Jazztet - Terre Engloutie
06. Carsten Meinert - To Trane
07. Malachi Thompson - Transition
08. Hampton Hawes Trio - Evening Trane
09. Carmelo Garcia - Trane
10. Jack McDuff - Naima

foobar2000 1.4.1 / Dynamic Range Meter 1.1.1
log date: 2023-11-23 16:42:18

––––––––––––––––––––––––––––––––––––––––
Analyzed: Carmelo Garcia / Spiritual Jazz 15: A Tribute to 'Trane (1)
Carsten Meinert / Spiritual Jazz 15: A Tribute to 'Trane (2)
Clifford Jordon / Spiritual Jazz 15: A Tribute to 'Trane (3)
Gilles Torrent Jazztet / Spiritual Jazz 15: A Tribute to 'Trane (4)
Hampton Hawes Trio / Spiritual Jazz 15: A Tribute to 'Trane (5)
Jack McDuff / Spiritual Jazz 15: A Tribute to 'Trane (6)
Malachi Thompson / Spiritual Jazz 15: A Tribute to 'Trane (7)
Norman Connors / Spiritual Jazz 15: A Tribute to 'Trane (8)
Sonny Fortune / Spiritual Jazz 15: A Tribute to 'Trane (9)
The Darwin Strickland Trio / Spiritual Jazz 15: A Tribute to 'Trane (10)
––––––––––––––––––––––––––––––––––––––––

DR Peak RMS Duration Track
––––––––––––––––––––––––––––––––––––––––
DR12 -0.47 dB -14.09 dB 4:36 09-Trane
DR8 -2.00 dB -12.58 dB 6:51 06-To Trane
DR13 0.00 dB -16.41 dB 7:47 02-John Coltrane
DR11 -2.09 dB -15.14 dB 13:01 05-Terre Engloutie
DR13 0.00 dB -16.71 dB 6:37 08-Evening Trane
DR13 0.00 dB -14.91 dB 10:15 10-Naima
DR13 0.00 dB -16.74 dB 6:26 07-Transition
DR12 0.00 dB -16.28 dB 7:22 01-Welcome
DR14 -0.08 dB -17.51 dB 5:48 03-Ole
DR11 0.00 dB -13.98 dB 5:52 04-Niami
––––––––––––––––––––––––––––––––––––––––

Number of tracks: 10
Official DR value: DR12

Samplerate: 96000 Hz
Channels: 2
Bits per sample: 24
Bitrate: 1486 kbps
Codec: FLAC
================================================================================


Thanks to the Original customer!