Tags
Language
Tags
February 2024
Su Mo Tu We Th Fr Sa
28 29 30 31 1 2 3
4 5 6 7 8 9 10
11 12 13 14 15 16 17
18 19 20 21 22 23 24
25 26 27 28 29 1 2
Attention❗ To save your time, in order to download anything on this site, you must be registered 👉 HERE. If you do not have a registration yet, it is better to do it right away. ✌

( • )( • ) ( ͡⚆ ͜ʖ ͡⚆ ) (‿ˠ‿)
SpicyMags.xyz

VA - Sowal Diabi: De Kaboul à Bamako (2022) [Official Digital Download]

Posted By: delpotro
VA - Sowal Diabi: De Kaboul à Bamako (2022) [Official Digital Download]

VA - Sowal Diabi: De Kaboul à Bamako (2022)
FLAC (tracks) 24-bit/44,1 kHz | Front Cover | Time - 54:53 minutes | 592 MB
World Fusion, Ethnic Jazz | Label: Accords Croisés, Official Digital Download

This ambitious project initiated with a reflection on exile and refugees and resulted in an original musical creation bringing together 12 artists - Arat Kilo, Mamani Keita, Ruşan Filiztek, Aida Nosrat, etc. - to create a repertoire of 14 songs, with influences from ethio-jazz, Afghan, Malian and Persian music. A clever mix of cultures, languages, and musicalities where emotion is the anchor.

“Sowal” means “question” in Persian, “diabi” means “answer” in Bambara. This ambitious project was first envisaged more than two years ago while pondering the plight of refugees, their contribution despite the somewhat hostile attitudes people display towards them. Sowal Diabi brought together on the same stage artists that have all experienced exile, physical or cultural: Malian singer Mamani Keita, Iranian singer Aïda Nosrat, her compatriot Sogol Mirzaei playing the târ (lute), the Afghan tabla-player Siar Hashimi, the Kurdish stranbej (virtuoso singer) Ruşan Filiztek and the French Ethio-jazz group Arat Kilo.

This in turn led to a meeting of minds and music despite differing traditions, resulting in this collection of 13 pieces. It’s a shimmering, fascinating tapestry of sound, weaving a diversity of timbre, temperament, and offbeat fashion, in which this strangely disparate Diaspora could not help but touch, attract and ultimately blend in an embrace bordering on love.

Mamani Keïta : Vocals
Aïda Nosrat : Vocals, Violin
Sogol Mirzaei : Tar
Siar Hashimi : Tablas, Daf
Rusan Filiztek : Saz, Daf, Oud, Vocals
and Arat Kilo :
Florent Berteau : Drums
Gérald Bonnegrace : Percussions
Fabien Girard : Electric Guitar, Keyboard
Aristide Gonçalves : Trumpet, Keyboard
Michael Havard : Saxophone, Transverse Flute
Samuel Hirsch : Electric Bass Guitar

Tracklist:
01. Désert
02. Solila
03. Master Gui
04. Kera Kera
05. Dalila
06. Ecoute le Ney
07. Layli Jan
08. Dia Barani
09. Drum Talk
10. Râhé Nour
11. Snow in Addis
12. Zolf Porayshan
13. Mirage (Ouverture)
14. Mirage

foobar2000 1.4.1 / Dynamic Range Meter 1.1.1
log date: 2023-11-19 15:39:50

––––––––––––––––––––––––––––––––––––––––
Analyzed: Arat Kilo / Sowal Diabi
––––––––––––––––––––––––––––––––––––––––

DR Peak RMS Duration Track
––––––––––––––––––––––––––––––––––––––––
DR8 -0.12 dB -10.63 dB 5:47 01-Désert
DR6 -0.11 dB -7.45 dB 3:33 02-Solila
DR6 -0.11 dB -8.60 dB 5:57 03-Master Gui
DR8 -0.12 dB -9.89 dB 4:11 04-Kera Kera
DR10 -0.11 dB -12.99 dB 1:18 05-Dalila
DR7 -0.11 dB -8.42 dB 4:25 06-Ecoute le Ney
DR7 -0.11 dB -9.08 dB 3:27 07-Layli Jan
DR7 -0.12 dB -9.07 dB 5:08 08-Dia Barani
DR12 -0.12 dB -13.83 dB 2:02 09-Drum Talk
DR9 -0.12 dB -11.12 dB 3:57 10-Râhé Nour
DR7 -0.11 dB -8.06 dB 5:00 11-Snow in Addis
DR8 -0.11 dB -9.34 dB 4:53 12-Zolf Porayshan
DR11 -0.13 dB -16.75 dB 3:37 13-Mirage (Ouverture)
DR6 -0.11 dB -8.08 dB 1:37 14-Mirage
––––––––––––––––––––––––––––––––––––––––

Number of tracks: 14
Official DR value: DR8

Samplerate: 44100 Hz
Channels: 2
Bits per sample: 24
Bitrate: 1571 kbps
Codec: FLAC
================================================================================


Thanks to the Original customer!