Tags
Language
Tags
March 2024
Su Mo Tu We Th Fr Sa
25 26 27 28 29 1 2
3 4 5 6 7 8 9
10 11 12 13 14 15 16
17 18 19 20 21 22 23
24 25 26 27 28 29 30
31 1 2 3 4 5 6
Attention❗ To save your time, in order to download anything on this site, you must be registered 👉 HERE. If you do not have a registration yet, it is better to do it right away. ✌

( • )( • ) ( ͡⚆ ͜ʖ ͡⚆ ) (‿ˠ‿)
SpicyMags.xyz

VA - Silk Road: Journey Of The Armenian Diaspora (1971-1982) (2021) [Official Digital Download 24/48]

Posted By: delpotro
VA - Silk Road: Journey Of The Armenian Diaspora (1971-1982) (2021) [Official Digital Download 24/48]

VA - Silk Road: Journey Of The Armenian Diaspora (1971-1982) (2021)
FLAC (tracks) 24-bit/48 kHz | Front Cover & Digital Booklet | Time - 37:02 minutes | 464 MB
Disco, Funk | Label: Terrestrial Funk, Official Digital Download

A decade of Armenian disco, funk, and soul, compiled by Darone Sassounian who spent three years tracking down the records and artists; fulfilling a calling to lift his people’s voice, a people that have always faced the threat of erasure. The music was made a generation after the Armenian Genocide, a testament to perseverance. The seven tracks featured are incredibly inventive and unique in their interpretations of these Western seventies sounds. This compilation comes at an urgent time as 2020 set the stage for Azerbaijan and Turkey to perpetuate genocidal rhetoric as they invaded Armenian borders and bombed civilian cities eventually resulting in the loss of lives and land stewarded for millennia. All while the western world paid little notice. It is with great gratitude and purpose that Terrestrial Funk rebirths this music and uplifts the voice of the Armenian Diaspora.

Tracklist:
01. Ammenaïn Serdov (De Tout Coeur) (With All My Heart)
02. Ors Kez Hed Antzav (My Day Spent With You)
03. Karoun E Yegel (Spring Has Come)
04. Tears On My Eyes
05. Sev Sev Achair (Black Black Eyes)
06. Taparoum Enk (We’re Wandering)
07. Im Sireli Ashdarag (My Dear Ashdarag)
08. Ammenain Serdov (De Tout Coeur) [Fundido Edit]
09. Karoun E Yegel (Darone Sassounian Edit)

foobar2000 1.4.1 / Dynamic Range Meter 1.1.1
log date: 2021-07-29 16:15:32

––––––––––––––––––––––––––––––––––––––––
Analyzed: Adiss Harmandyan / Silk Road: Journey of the Armenian Diaspora (1971 - 1982) (1)
Avo Haroutiounian / Silk Road: Journey of the Armenian Diaspora (1971 - 1982) (2)
Eddy Jeghelian / Silk Road: Journey of the Armenian Diaspora (1971 - 1982) (3)
Harout Pamboukjian / Silk Road: Journey of the Armenian Diaspora (1971 - 1982) (4)
Jozeph Sefian / Silk Road: Journey of the Armenian Diaspora (1971 - 1982) (5-7)
Marten Yorgantz / Silk Road: Journey of the Armenian Diaspora (1971 - 1982) (8-9)
––––––––––––––––––––––––––––––––––––––––

DR Peak RMS Duration Track
––––––––––––––––––––––––––––––––––––––––
DR8 -0.09 dB -9.33 dB 3:00 02-Ors Kez Hed Antzav (My Day Spent With You)
DR9 -0.10 dB -9.83 dB 3:19 04-Tears On My Eyes
DR10 -0.10 dB -11.38 dB 3:39 07-Im Sireli Ashdarag (My Dear Ashdarag)
DR9 -0.10 dB -10.05 dB 3:49 06-Taparoum Enk (We’re Wandering)
DR8 -0.09 dB -9.09 dB 4:37 03-Karoun E Yegel (Spring Has Come)
DR9 -0.09 dB -10.49 dB 3:16 05-Sev Sev Achair (Black Black Eyes)
DR8 -0.10 dB -8.89 dB 5:32 09-Karoun E Yegel (Darone Sassounian Edit)
DR9 -0.10 dB -10.50 dB 4:37 01-Ammenaïn Serdov (De Tout Coeur) (With All My Heart)
DR8 -0.10 dB -9.50 dB 5:14 08-Ammenain Serdov (De Tout Coeur) [Fundido Edit]
––––––––––––––––––––––––––––––––––––––––

Number of tracks: 9
Official DR value: DR9

Samplerate: 48000 Hz
Channels: 2
Bits per sample: 24
Bitrate: 1750 kbps
Codec: FLAC
================================================================================


Thanks to the Original customer!