Tags
Language
Tags
June 2024
Su Mo Tu We Th Fr Sa
26 27 28 29 30 31 1
2 3 4 5 6 7 8
9 10 11 12 13 14 15
16 17 18 19 20 21 22
23 24 25 26 27 28 29
30 1 2 3 4 5 6

VA - Light in the Attic & Friends (2023) [Official Digital Download 24/96]

Posted By: delpotro
VA - Light in the Attic & Friends (2023) [Official Digital Download 24/96]

VA - Light in the Attic & Friends (2023)
FLAC (tracks) 24-bit/96 kHz | Front Cover | Time - 84:35 minutes | 1,49 GB
Folk, Rock, Electronic | Label: Light in the Attic Records, Official Digital Download

For more than 20 years, Light in the Attic has shined a spotlight on some of music’s most unique – and often forgotten – voices. But reviving these long-out-of-print recordings is only half of the process. “We believe that an essential component of archival work, aside from simply honoring the music, is to seek ways in which to bring fresh perspectives, context, and reverence to the original artists and their work,” says LITA Founder and Co-Owner, Matt Sullivan. Thus, LITA’s acclaimed 7” vinyl and digital singles Cover Series was born, in which contemporary acts pay homage to their favorite LITA artists and songs. Spanning more than a decade, a handful of these sought-after recordings have previously been issued as limited-edition 45s, while nearly a dozen tracks are brand-new recordings. Now, all twenty of these inspired tributes will be available together for the very first time as a special limited-edition 2-LP set, titled *_Light in the Attic & Friends_* ‒ being released exclusively for Record Store Day’s annual Black Friday event, taking place on November 24th at participating independent retailers.

From Charles Bradley & The Menahan Street Band covering Detroit singer-songwriter Sixto Rodriguez and Mac DeMarco performing a song by Japanese icon Haruomi Hosono, to Iggy Pop & Zig Zags honoring funk queen Betty Davis, and Ethan & Maya Hawke covering country great Willie Nelson, these performances bridge the gap between generations, languages, and musical traditions. “Many musicians whom we’ve reissued had to make huge sacrifices in their day, yet most never saw fame nor were they appreciated on a larger scale until much later in life,” adds Sullivan. “Each offering is so much more than just a cover; it is a tribute to the unwavering human spirit of the personal sacrifice each artist forged through song.”

Tracklist:
01. Charles Bradley - I'll Slip Away (feat. The Menahan Street Band)
02. Sweet Tea - After Laughter (Comes Tears) (feat. Erika Wennerstrom & Alex Maas)
03. Vashti Bunyan - How Could You Let Me Go (feat. Devendra Banhart)
04. Barbara Lynn - We'll Understand
05. Badbadnotgood - Key To Love (Is Understanding)
06. Iggy Pop - If I'm In Luck I Might Get Picked Up (feat. Zig Zags)
07. Mozart Estate - Low Life
08. Leslie Winer - Once I Was (feat. Maxwell Sterling)
09. Ethan Hawke - We Don't Run (feat. Maya Hawke)
10. Gold Leaves - Won't You Tell Your Dreams
11. Swamp Dogg - The Kneeling Drunkard's Plea (feat. John C. Reilly, Jenny Lewis & Tim Heidecker
12. Silas Short - You've Become A Habit
13. Mac DeMarco - Honey Moon
14. Cameron Bethany - Send It On
15. Roedelius - Le Chant des Fauves
16. Mark Lanegan - Same Old Man
17. Angel Olsen - Something On Your Mind
18. Mary Lattimore - Blink
19. Acetone - Plain As Your Eyes Can See
20. Steve Gunn - Rabbit Hills (feat. Bridget St. John)

foobar2000 1.4.1 / Dynamic Range Meter 1.1.1
log date: 2023-11-25 19:07:41

––––––––––––––––––––––––––––––––––––––––
Analyzed: Ethan Hawke / Light in the Attic & Friends (1)
Gold Leaves / Light in the Attic & Friends (2)
Iggy Pop / Light in the Attic & Friends (3)
Leslie Winer / Light in the Attic & Friends (4)
Mac DeMarco / Light in the Attic & Friends (5)
Mark Lanegan / Light in the Attic & Friends (6)
Mary Lattimore / Light in the Attic & Friends (7)
Mozart Estate / Light in the Attic & Friends (8)
Roedelius / Light in the Attic & Friends (9)
Silas Short / Light in the Attic & Friends (10)
Steve Gunn / Light in the Attic & Friends (11)
Swamp Dogg / Light in the Attic & Friends (12)
Sweet Tea / Light in the Attic & Friends (13)
Vashti Bunyan / Light in the Attic & Friends (14)
––––––––––––––––––––––––––––––––––––––––

DR Peak RMS Duration Track
––––––––––––––––––––––––––––––––––––––––
DR11 -0.71 dB -15.08 dB 3:40 09-We Don't Run (feat. Maya Hawke)
DR8 -0.71 dB -10.88 dB 3:19 10-Won't You Tell Your Dreams
DR8 -0.70 dB -10.26 dB 3:59 06-If I'm In Luck I Might Get Picked Up (feat. Zig Zags)
DR11 -1.33 dB -13.48 dB 3:51 08-Once I Was (feat. Maxwell Sterling)
DR9 -0.71 dB -12.06 dB 2:36 13-Honey Moon
DR8 -1.65 dB -11.23 dB 2:47 16-Same Old Man
DR16 -0.71 dB -21.14 dB 5:40 18-Blink
DR9 -0.70 dB -10.26 dB 3:27 07-Low Life
DR9 -3.90 dB -16.71 dB 6:51 15-Le Chant des Fauves
DR9 -0.71 dB -12.05 dB 3:59 12-You've Become A Habit
DR11 -0.71 dB -14.55 dB 5:19 20-Rabbit Hills (feat. Bridget St. John)
DR9 -0.70 dB -11.33 dB 3:29 11-The Kneeling Drunkard's Plea (feat. John C. Reilly, Jenny Lewis & Tim Heidecker
DR8 -0.70 dB -10.13 dB 3:31 02-After Laughter (Comes Tears) (feat. Erika Wennerstrom & Alex Maas)
DR9 -0.71 dB -11.96 dB 4:11 03-How Could You Let Me Go (feat. Devendra Banhart)
––––––––––––––––––––––––––––––––––––––––

Number of tracks: 14
Official DR value: DR10

Samplerate: 96000 Hz
Channels: 2
Bits per sample: 24
Bitrate: 2328 kbps
Codec: FLAC
================================================================================


Thanks to the Original customer!