Tags
Language
Tags

Till Bronner - That Summer (2004) MCH SACD ISO + DSD64 + Hi-Res FLAC

Posted By: HDAtall
Till Bronner - That Summer (2004) MCH SACD ISO + DSD64 + Hi-Res FLAC

Till Brönner - That Summer (2004)
SACD Rip | SACD ISO | DST64 2.0 & 5.1 > 1-bit/2.8224 MHz | 62:10 minutes | Scans included | 4,05 GB
or DSD64 2.0 Stereo (from SACD-ISO to Tracks.dsf) > 1-bit/2.8224 MHz | Scans included | 1,64 GB
or FLAC Stereo (carefully converted & encoded to tracks) 24bit/96 kHz | Scans included | 1,43 GB
Features Stereo and Multichannel Surround Sound

Trumpeter and crooner Till Bronner was the most famous German jazz musician of his generation, updating traditional bebop sensibilities via elements of contemporary R&B and hip-hop. That Summer, his 2004's album, features the pop-jazz artists smooth, laid-back horn style. Included are such originals as "Your Way to Say Goodbye", and "Ready or Not" as well as Brönner's take on the standards "Bein' Green" and "When Your Lover Has Gone". This album reached number 16 on the German pop charts and made him the nation's biggest-selling jazz artist of all time.

Tracklist:

01. Your Way To Say Goodbye
02. Bein' Green
03. High Falls
04. When Your Lover Has Gone
05. Estrada Branca
06. Antonio's Song
07. Ready Or Not
08. After Hours
09. So Right, So Wrong
10. Wishing Well
11. Rising Star
12. Eleanor Rigby [Bonus Track]

foobar2000 1.4.6 / Dynamic Range Meter 1.1.1

––––––––––––––––––––––––––––––––––––––––
Analyzed: Till Brönner / That Summer
––––––––––––––––––––––––––––––––––––––––

DR Peak RMS Duration Track
––––––––––––––––––––––––––––––––––––––––
DR13 -3.92 dB -22.64 dB 3:25 01-Your Way To Say Goodbye
DR12 -4.56 dB -22.38 dB 4:12 02-Bein' Green
DR13 -3.95 dB -21.20 dB 4:43 03-High Falls
DR13 -3.57 dB -21.05 dB 5:32 04-When Your Lover Has Gone
DR14 -5.04 dB -23.52 dB 3:33 05-Estrada Branca
DR13 -3.73 dB -22.14 dB 4:59 06-Antonio's Song
DR12 -3.74 dB -21.78 dB 5:10 07-Ready Or Not
DR13 -5.38 dB -25.13 dB 5:13 08-After Hours
DR12 -4.04 dB -22.58 dB 3:53 09-So Right, So Wrong
DR13 -4.79 dB -25.04 dB 3:53 10-Wishing Well
DR12 -4.77 dB -22.95 dB 4:44 11-Rising Star
DR13 -4.09 dB -22.84 dB 12:52 12-Eleanor Rigby
––––––––––––––––––––––––––––––––––––––––

Number of tracks: 12
Official DR value: DR13

Samplerate: 2822400 Hz / PCM Samplerate: 176400 Hz
Channels: 6
Bits per sample: 1
Bitrate: 16934 kbps
Codec: DST64
================================================================================

––––––––––––––––––––––––––––––––––––––––
Analyzed: Till Brönner / That Summer
––––––––––––––––––––––––––––––––––––––––

DR Peak RMS Duration Track
––––––––––––––––––––––––––––––––––––––––
DR13 -2.35 dB -18.36 dB 3:25 01-Your Way To Say Goodbye
DR13 -5.44 dB -20.98 dB 4:12 02-Bein' Green
DR14 -1.93 dB -19.41 dB 4:43 03-High Falls
DR14 -2.51 dB -19.28 dB 5:32 04-When Your Lover Has Gone
DR14 -2.45 dB -18.43 dB 3:33 05-Estrada Branca
DR13 -4.19 dB -18.84 dB 4:59 06-Antonio's Song
DR14 -1.73 dB -19.30 dB 5:10 07-Ready Or Not
DR14 -3.24 dB -20.40 dB 5:13 08-After Hours
DR12 -3.86 dB -19.09 dB 3:53 09-So Right, So Wrong
DR13 -4.41 dB -21.92 dB 3:53 10-Wishing Well
DR12 -4.13 dB -18.85 dB 4:44 11-Rising Star
DR13 -3.76 dB -20.73 dB 12:52 12-Eleanor Rigby
––––––––––––––––––––––––––––––––––––––––

Number of tracks: 12
Official DR value: DR13

Samplerate: 2822400 Hz / PCM Samplerate: 176400 Hz
Channels: 2
Bits per sample: 1
Bitrate: 5645 kbps
Codec: DST64


Thanks to ehondik!
Uncompressed SACD ISO size > 3,83 GB
>