Tags
Language
Tags
September 2022
Su Mo Tu We Th Fr Sa
28 29 30 31 1 2 3
4 5 6 7 8 9 10
11 12 13 14 15 16 17
18 19 20 21 22 23 24
25 26 27 28 29 30 1

Tassilo Probst & Maxim Lando - Into Madness (2022) [Official Digital Download 24/96]

Posted By: delpotro
Tassilo Probst & Maxim Lando - Into Madness (2022) [Official Digital Download 24/96]

Tassilo Probst & Maxim Lando - Into Madness (2022)
FLAC (tracks) 24-bit/96 kHz | Front Cover | Time - 85:26 minutes | 1,34 GB
Classical | Label: BR-Klassik, Official Digital Download

Newcomer Tassilo Probst releases his first album with duo partner Maxim Lando The young violinist ventures into truly virtuoso repertoire and presents three sonatas for violin and piano by Bela Bartok George Enescu and Joseph Achron the latter is a world premiere recording The double album will be released on August 19 th by Berlin Classics in co-production with Bayrischer Rundfunk."I love all kinds of music, including Beethoven or Brahms sonatas, of course But for my first recording, I liked to record unknown sonatas and make a " with them!", explains Probst in an interview with Malte Hemmerich The young musician has already made a name for himself in the classical music scene.."Tassilo is an outstanding violinist and musician, with a strong will, unique sound and impressive mastery of the instrument," reports Daniel Hope, with whom both Tassilo Probst and Maxim Lando have been guests a few times.

Tracklist:
Disc 1 (55:09)
1. Sonata for Violin and Piano in E Minor, Op. Posth.: I. Allegro moderato (molto rubato) (09:56)
2. Sonata for Violin and Piano in E Minor, Op. Posth.: II. Andante (10:52)
3. Sonata for Violin and Piano in E Minor, Op. Posth.: III. Vivace (08:53)
4. Sonata for Violin and Piano No. 3 in A Minor, Op. 25: I. Moderato malinconico (09:32)
5. Sonata for Violin and Piano No. 3 in A Minor, Op. 25: II. Andante sostenuto e misterioso (08:07)
6. Sonata for Violin and Piano No. 3 in A Minor, Op. 25: III. Allegro con brio, ma non troppo mosso (07:49)

Disc 2 (30:13)
1. Sonata for Violin and Piano No. 2, Op. 45: I. Giocondo (11:50)
2. Sonata for Violin and Piano No. 2, Op. 45: II. Misterioso e fantastico (06:59)
3. Sonata for Violin and Piano No. 2, Op. 45: III. Burla. Allegro (03:41)
4. Sonata for Violin and Piano No. 2, Op. 45: IV. Focoso (07:43)

foobar2000 1.4.1 / Dynamic Range Meter 1.1.1
log date: 2022-08-16 16:48:41

––––––––––––––––––––––––––––––––––––––––
Analyzed: Tassilo Probst & Maxim Lando / Into Madness
––––––––––––––––––––––––––––––––––––––––

DR Peak RMS Duration Track
––––––––––––––––––––––––––––––––––––––––
DR13 -4.63 dB -23.51 dB 9:56 01-Bartók: Sonata for violin and piano in E Minor, op. posth.: I . Allegro moderato (molto rubato)
DR14 -4.52 dB -25.87 dB 10:53 02-Bartók: Sonata for violin and piano in E Minor, op. posth.: II. Andante
DR14 -3.21 dB -23.61 dB 8:53 03-Bartók: Sonata for violin and piano in E Minor, op. posth.: III. Vivace
DR14 -6.19 dB -26.76 dB 9:32 04-Enescu: Sonata for violin and piano, no. 3 in A Minor, Op. 25: I. Moderato malinconico
DR14 -4.29 dB -25.66 dB 8:07 05-Enescu: Sonata for violin and piano, no. 3 in A Minor, Op. 25: II. Andante sostenuto e misterioso
DR14 -0.65 dB -21.43 dB 7:50 06-Enescu: Sonata for violin and piano, no. 3 in A Minor, Op. 25: III. Allegro con brio, ma non troppo mosso
DR14 -0.65 dB -21.72 dB 11:50 07-Achron: Sonata for Violin and Piano, No. 2, Op. 45: I. Giocondo
DR15 -1.64 dB -23.94 dB 7:00 08-Achron: Sonata for Violin and Piano, No. 2, Op. 45: II. Misterioso e fantastico
DR17 -5.57 dB -29.31 dB 3:41 09-Achron: Sonata for Violin and Piano, No. 2, Op. 45: III. Burla (Allegro)
DR13 -1.87 dB -22.34 dB 7:43 10-Achron: Sonata for Violin and Piano, No. 2, Op. 45: IV. Focoso
––––––––––––––––––––––––––––––––––––––––

Number of tracks: 10
Official DR value: DR14

Samplerate: 96000 Hz
Channels: 2
Bits per sample: 24
Bitrate: 2403 kbps
Codec: FLAC
================================================================================


Thanks to the Original customer!