Tags
Language
Tags
April 2024
Su Mo Tu We Th Fr Sa
31 1 2 3 4 5 6
7 8 9 10 11 12 13
14 15 16 17 18 19 20
21 22 23 24 25 26 27
28 29 30 1 2 3 4

Takayuki Mihara - Beethoven: Piano Sonatas Nos. 14, 30 & 31 (2024) [Official Digital Download 24/96]

Posted By: delpotro
Takayuki Mihara - Beethoven: Piano Sonatas Nos. 14, 30 & 31 (2024) [Official Digital Download 24/96]

Takayuki Mihara - Beethoven: Piano Sonatas Nos. 14, 30 & 31 (2024)
FLAC (tracks) 24-bit/96 kHz | Front Cover | Time - 65:07 minutes | 1,01 GB
Classical | Label: sonorité, Official Digital Download

The first recording by the up-and-coming Takayuki Mihara is three of Beethoven's masterpiece piano sonatas. Dedicated to the memory of his former teacher Akiko Sugitani, who passed away suddenly in 2019, the piety that pervades the entire work adds depth to the music. <Takayuki Mihara graduated from Kaisei Junior High School and Senior High School, and received his B.S. in Pharmaceutical Sciences from Keio University. Later, she studied under Akiko Sugitani, who became her lifelong teacher. She was fascinated by the gentle yet powerful music of her teacher's piano playing, and under her guidance, pursued the pursuit of beautiful sound. She performed with the Prima Vista String Quartet and the Polish Silesian Philharmonic Orchestra, and became passionate about bringing out a variety of tones from the piano. In 2009, she won the third prize in the junior high school division of the Asia International Music Competition and the first prize in the junior high school division of the same competition in 2010, and has had opportunities to perform in Japan and abroad, including appearances at the Xi'an Music Academy and the Vienna State University of Music's Liszt-Saal. In 2010, she won a prize in the Special Division of the 1st European International Piano Competition in Japan, and has continued her studies in order to inherit her teacher's view of music. In recent years, she has been performing solo concerts at the request of the Christian churches and universities she has attended since childhood, giving concerts with other pianists who are also students of Akiko Sugitani, and performing in concerts organized by the Kaisei Piano Enthusiasts' Association. He has studied with Nobumichi Koyanagi at the Music School attached to Musashino Academia Musicae and with Kyoniko Yamamoto at the Music School for Children attached to Toho Gakuen School of Music, as well as with the late Akiko Sugitani.

Tracklist:
01. Piano Sonata No. 31 in A-Flat Major, Op. 110: I. Moderato cantabile molto espressivo
02. Piano Sonata No. 31 in A-Flat Major, Op. 110: II. Allegro molto
03. Piano Sonata No. 31 in A-Flat Major, Op. 110: III. Adagio ma non troppo - Allegro ma non troppo
04. Piano Sonata No. 14 in C-Sharp Minor, Op. 27 No. 2 "Moonlight": I. Adagio sostenuto
05. Piano Sonata No. 14 in C-Sharp Minor, Op. 27 No. 2 "Moonlight": II. Allegretto
06. Piano Sonata No. 14 in C-Sharp Minor, Op. 27 No. 2 "Moonlight": III. Presto agitato
07. Piano Sonata No. 30 in E Major, Op. 109: I. Vivace ma non troppo, sempre legato - Adagio espressivo
08. Piano Sonata No. 30 in E Major, Op. 109: II. Prestissimo
09. Piano Sonata No. 30 in E Major, Op. 109: III. Gesangvoll, mit innigster Empfindung. Andante molto cantabile ed espressivo

foobar2000 1.4.1 / Dynamic Range Meter 1.1.1
log date: 2024-03-01 19:41:11

––––––––––––––––––––––––––––––––––––––––
Analyzed: Takayuki Mihara / Beethoven: Piano Sonatas Nos. 14, 30 & 31
––––––––––––––––––––––––––––––––––––––––

DR Peak RMS Duration Track
––––––––––––––––––––––––––––––––––––––––
DR13 -2.59 dB -22.51 dB 6:44 01-Piano Sonata No. 31 in A-Flat Major, Op. 110: I. Moderato cantabile molto espressivo
DR13 -1.53 dB -18.64 dB 2:12 02-Piano Sonata No. 31 in A-Flat Major, Op. 110: II. Allegro molto
DR14 -0.09 dB -20.94 dB 12:49 03-Piano Sonata No. 31 in A-Flat Major, Op. 110: III. Adagio ma non troppo - Allegro ma non troppo
DR15 -6.96 dB -28.85 dB 9:16 04-Piano Sonata No. 14 in C-Sharp Minor, Op. 27 No. 2 "Moonlight": I. Adagio sostenuto
DR14 -6.04 dB -24.25 dB 2:15 05-Piano Sonata No. 14 in C-Sharp Minor, Op. 27 No. 2 "Moonlight": II. Allegretto
DR13 0.00 dB -17.29 dB 7:09 06-Piano Sonata No. 14 in C-Sharp Minor, Op. 27 No. 2 "Moonlight": III. Presto agitato
DR14 -2.20 dB -21.39 dB 4:27 07-Piano Sonata No. 30 in E Major, Op. 109: I. Vivace ma non troppo, sempre legato - Adagio espressivo
DR13 -0.01 dB -17.77 dB 2:35 08-Piano Sonata No. 30 in E Major, Op. 109: II. Prestissimo
DR13 -2.76 dB -22.85 dB 17:39 09-Piano Sonata No. 30 in E Major, Op. 109: III. Gesangvoll, mit innigster Empfindung. Andante molto cantabile ed espressivo
––––––––––––––––––––––––––––––––––––––––

Number of tracks: 9
Official DR value: DR14

Samplerate: 96000 Hz
Channels: 2
Bits per sample: 24
Bitrate: 2187 kbps
Codec: FLAC
================================================================================


Thanks to the Original customer!