Tags
Language
Tags

Stockholms Barockorkester - Dancing Bach (2006) MCH PS3 ISO + DSD64 + Hi-Res FLAC

Posted By: HDAtall
Stockholms Barockorkester - Dancing Bach (2006) MCH PS3 ISO + DSD64 + Hi-Res FLAC

Stockholm Baroque Orchestra - Dancing Bach (2006)
PS3 Rip | SACD ISO | DST64 2.0 & 5.0 > 1-bit/2.8224 MHz | 69:29 minutes | Scans included | 3,12 GB
or DSD64 2.0 Stereo (from SACD-ISO to Tracks.dsf) > 1-bit/2.8224 MHz | Full Scans included | 1,75 GB
or FLAC Stereo (carefully converted & encoded to tracks) 24bit/44,1 kHz | Full Scans included | 767 MB
Features Stereo and Quadrophonic Surround Sound | Label: Proprus Music # PRSACD 2036

The Stockholm Baroque Orchestra is a group of experienced musicians who have a special interest in the music of the Baroque and Classical periods. The orchestra has toured throughout Sweden and performed in England, Germany, Switzerland, Italy, Lebanon, Finland and Norway. This Surround Sound 4.0 SACD features the dance music of well-known composer Johann Sebastian Bach, and contains "Suite No. 2 In B Minor", "Suite No. 1 in C", "Sonata In G", "Invention No. 8 In F" and many others.

Bach could make the most complicated fugue sound like a dance and he also wrote some of the most outstanding dance tunes of the Baroque. Stockholm Baroque Orchestra presents a highly personal interpretation of Bach's music, evoking the atmosphere of Zimmerman's coffee house where the composer and his friends would meet for a "jam session".

Tracklist:

01. Suite No.2 In B Minor BWV 1067: Ouverture
02. Suite No.2 In B Minor BWV 1067: Rondeau
03. Suite No.2 In B Minor BWV 1067: Sarabande
04. Suite No.2 In B Minor BWV 1067: Bourree I & II
05. Suite No.2 In B Minor BWV 1067: Polonaise & Double
06. Suite No.2 In B Minor BWV 1067: Menuet
07. Suite No.2 In B Minor BWV 1067: Badienerie
08. Sonata In G BWV 1021: Adagio
09. Sonata In G BWV 1021: Vivace
10. Sonata In G BWV 1021: Largo
11. Sonata In G BWV 1021: Presto
12. Invention No. 8 In F BWV 779
13. From Suite In G BWV 1007: Sarabanda
14. From Suite In G BWV 1007: Menuet
15. From Sonata No. 3 In C BWV 1005: Allegro Assai
16. From Suite In D Minor BWV 1008: Sarabanda
17. From Partita In D Minor BWV 1004: Allemanda
18. From Partita In D Minor BWV 1004: Corrente
19. From Partita In D Minor BWV 1004: Sarabanda
20. From Partita In D Minor BWV 1004: Giga
21. Suite No. 1 In C BWV 1066: Ouverture
22. Suite No. 1 In C BWV 1066: Courante
23. Suite No. 1 In C BWV 1066: Gavotte I & II
24. Suite No. 1 In C BWV 1066: Forlane
25. Suite No. 1 In C BWV 1066: Menuet I & II
26. Suite No. 1 In C BWV 1066: Bourree I & II
27. Suite No. 1 In C BWV 1066: Passepied I & II
28. Invention No. 13 In A Minor BWV 784

Stockholms Barockorkester
Maria Lindal - violin
Lars Warnstad - violin
Mikael Marin - viola
Magdalena Marding - cello
Jonas Dominique - double bas
Karl Nyhlin- theorbo, baroque guitar
Peter Lonnerberg - harpsichord
Kennet Bohman - oboe
Christopher Colin Nordberg - oboe
Mats Klingfors - bassoon, flute

Recorded on February 14-16, 2006 at Grona Villan, Bromma;
on March 1, 2006 at Danderyds Gymnasium; & on March 2 & 14 at Mariakyrkan, Danderyd, Sweden.

foobar2000 1.6.11 / Dynamic Range Meter 1.1.1

––––––––––––––––––––––––––––––––––––––––
Analyzed: Stockholms Barockorkester / Dancing Bach
––––––––––––––––––––––––––––––––––––––––

DR Peak RMS Duration Track
––––––––––––––––––––––––––––––––––––––––
DR11 -5.88 dB -26.51 dB 6:04 01-Suite No.2 In B Minor BWV 1067: Ouverture
DR10 -8.37 dB -28.02 dB 1:43 02-Suite No.2 In B Minor BWV 1067: Rondeau
DR9 -9.56 dB -26.97 dB 1:51 03-Suite No.2 In B Minor BWV 1067: Sarabande
DR10 -7.88 dB -27.63 dB 1:56 04-Suite No.2 In B Minor BWV 1067: Bourree I & II
DR11 -6.16 dB -26.16 dB 3:00 05-Suite No.2 In B Minor BWV 1067: Polonaise & Double
DR10 -5.82 dB -25.88 dB 1:00 06-Suite No.2 In B Minor BWV 1067: Menuet
DR10 -7.82 dB -27.00 dB 1:18 07-Suite No.2 In B Minor BWV 1067: Badienerie
DR10 -10.49 dB -29.26 dB 3:30 08-Sonata In G BWV 1021: Adagio
DR10 -8.78 dB -28.12 dB 0:56 09-Sonata In G BWV 1021: Vivace
DR10 -11.38 dB -30.17 dB 1:52 10-Sonata In G BWV 1021: Largo
DR10 -8.47 dB -27.94 dB 1:25 11-Sonata In G BWV 1021: Presto
DR10 -7.82 dB -28.67 dB 0:57 12-Invention No. 8 In F BWV 779
DR9 -12.19 dB -29.47 dB 1:53 13-From Suite In G BWV 1007: Sarabanda
DR11 -7.03 dB -28.33 dB 2:42 14-From Suite In G BWV 1007: Menuet
DR10 -12.61 dB -31.16 dB 3:43 15-From Sonata No. 3 In C BWV 1005: Allegro Assai
DR10 -9.70 dB -28.59 dB 3:06 16-From Suite In D Minor BWV 1008: Sarabanda
DR11 -9.98 dB -32.81 dB 4:00 17-From Partita In D Minor BWV 1004: Allemanda
DR11 -11.08 dB -32.30 dB 1:28 18-From Partita In D Minor BWV 1004: Corrente
DR10 -10.91 dB -31.95 dB 3:11 19-From Partita In D Minor BWV 1004: Sarabanda
DR11 -13.34 dB -33.41 dB 2:17 20-From Partita In D Minor BWV 1004: Giga
DR10 -6.48 dB -25.30 dB 5:37 21-Suite No. 1 In C BWV 1066: Ouverture
DR10 -7.32 dB -25.61 dB 2:02 22-Suite No. 1 In C BWV 1066: Courante
DR11 -5.84 dB -26.44 dB 2:54 23-Suite No. 1 In C BWV 1066: Gavotte I & II
DR11 -5.95 dB -26.37 dB 1:35 24-Suite No. 1 In C BWV 1066: Forlane
DR10 -8.85 dB -28.68 dB 2:22 25-Suite No. 1 In C BWV 1066: Menuet I & II
DR10 -6.90 dB -26.58 dB 2:10 26-Suite No. 1 In C BWV 1066: Bourree I & II
DR10 -7.47 dB -27.22 dB 2:27 27-Suite No. 1 In C BWV 1066: Passepied I & II
DR10 -6.93 dB -25.97 dB 2:31 28-Invention No. 13 In A Minor BWV 784
––––––––––––––––––––––––––––––––––––––––

Number of tracks: 28
Official DR value: DR10

Samplerate: 2822400 Hz / PCM Samplerate: 176400 Hz
Channels: 5
Bits per sample: 1
Bitrate: 14112 kbps
Codec: DST64
================================================================================

––––––––––––––––––––––––––––––––––––––––
Analyzed: Stockholms Barockorkester / Dancing Bach
––––––––––––––––––––––––––––––––––––––––

DR Peak RMS Duration Track
––––––––––––––––––––––––––––––––––––––––
DR13 -6.00 dB -22.78 dB 6:04 01-Suite No.2 In B Minor BWV 1067: Ouverture
DR13 -8.38 dB -24.32 dB 1:43 02-Suite No.2 In B Minor BWV 1067: Rondeau
DR11 -9.59 dB -23.23 dB 1:51 03-Suite No.2 In B Minor BWV 1067: Sarabande
DR13 -7.88 dB -23.95 dB 1:56 04-Suite No.2 In B Minor BWV 1067: Bourree I & II
DR13 -6.30 dB -22.43 dB 3:00 05-Suite No.2 In B Minor BWV 1067: Polonaise & Double
DR12 -5.90 dB -22.15 dB 1:00 06-Suite No.2 In B Minor BWV 1067: Menuet
DR13 -7.90 dB -23.28 dB 1:18 07-Suite No.2 In B Minor BWV 1067: Badienerie
DR12 -10.30 dB -25.99 dB 3:30 08-Sonata In G BWV 1021: Adagio
DR12 -8.62 dB -24.77 dB 0:56 09-Sonata In G BWV 1021: Vivace
DR12 -11.49 dB -27.04 dB 1:52 10-Sonata In G BWV 1021: Largo
DR13 -8.61 dB -24.61 dB 1:25 11-Sonata In G BWV 1021: Presto
DR13 -7.75 dB -25.13 dB 0:57 12-Invention No. 8 In F BWV 779
DR11 -11.76 dB -25.98 dB 1:53 13-From Suite In G BWV 1007: Sarabanda
DR14 -7.11 dB -24.78 dB 2:42 14-From Suite In G BWV 1007: Menuet
DR12 -12.37 dB -27.56 dB 3:43 15-From Sonata No. 3 In C BWV 1005: Allegro Assai
DR12 -9.48 dB -24.91 dB 3:06 16-From Suite In D Minor BWV 1008: Sarabanda
DR14 -10.11 dB -29.25 dB 4:00 17-From Partita In D Minor BWV 1004: Allemanda
DR14 -10.87 dB -29.03 dB 1:28 18-From Partita In D Minor BWV 1004: Corrente
DR13 -10.76 dB -28.70 dB 3:11 19-From Partita In D Minor BWV 1004: Sarabanda
DR14 -13.25 dB -30.30 dB 2:17 20-From Partita In D Minor BWV 1004: Giga
DR13 -6.57 dB -21.59 dB 5:37 21-Suite No. 1 In C BWV 1066: Ouverture
DR12 -7.28 dB -21.92 dB 2:02 22-Suite No. 1 In C BWV 1066: Courante
DR13 -5.75 dB -22.73 dB 2:54 23-Suite No. 1 In C BWV 1066: Gavotte I & II
DR13 -6.03 dB -22.67 dB 1:35 24-Suite No. 1 In C BWV 1066: Forlane
DR13 -8.94 dB -25.03 dB 2:22 25-Suite No. 1 In C BWV 1066: Menuet I & II
DR13 -7.09 dB -22.87 dB 2:10 26-Suite No. 1 In C BWV 1066: Bourree I & II
DR12 -7.30 dB -23.57 dB 2:27 27-Suite No. 1 In C BWV 1066: Passepied I & II
DR12 -6.85 dB -22.17 dB 2:31 28-Invention No. 13 In A Minor BWV 784
––––––––––––––––––––––––––––––––––––––––

Number of tracks: 28
Official DR value: DR13

Samplerate: 2822400 Hz / PCM Samplerate: 176400 Hz
Channels: 2
Bits per sample: 1
Bitrate: 5645 kbps
Codec: DST64


Thanks to Ivan!
Uncompressed SACD ISO size > 2,97 GB
>