Tags
Language
Tags

Step By Step - I Always Wanted to Be in the Band (1976/2022) [Official Digital Download]

Posted By: delpotro
Step By Step - I Always Wanted to Be in the Band (1976/2022) [Official Digital Download]

Step By Step - I Always Wanted to Be in the Band (1976/2022)
FLAC (tracks) 24-bit/44,1 kHz | Front Cover | Time - 39:27 minutes | 43 MB
Soul | Label: Crimson, Official Digital Download

Groovy little funky band from Milwaukee, with a brassy sound that's a bit like the T.S.U. Tornadoes, but with more vocals. The title cut's a nice goofy track that starts with some guy havin' a fight with his old lady about being in a band, and there's a lot of other nice groovers with this sort of uptempo, upbeat funky style. Other cuts include 'Cash Money', 'I Am A Lonely Man', and 'Cool Days Are Out Of Style'.

Tracklist:
1. Cash Money (05:49)
2. So Very Near You (02:48)
3. I'm Glad (04:21)
4. Don't Leave Me (04:04)
5. We Won This Time (04:14)
6. Cool Days Are out of Style (03:14)
7. I Always Wanted to Be in the Band (04:40)
8. People (03:33)
9. I Am a Lonely Man (03:37)
10. I Ain't Never Gonna Let You Go (03:03)

foobar2000 1.4.1 / Dynamic Range Meter 1.1.1
log date: 2022-08-06 18:11:55

––––––––––––––––––––––––––––––––––––––––
Analyzed: Step By Step / I Always Wanted to Be in the Band
––––––––––––––––––––––––––––––––––––––––

DR Peak RMS Duration Track
––––––––––––––––––––––––––––––––––––––––
DR9 -0.01 dB -10.19 dB 5:50 01-Cash Money
DR8 -0.65 dB -10.37 dB 2:49 02-So Very Near You
DR7 -0.73 dB -9.16 dB 4:22 03-I'm Glad
DR8 -0.60 dB -10.73 dB 4:05 04-Don't Leave Me
DR9 -0.50 dB -10.49 dB 4:14 05-We Won This Time
DR8 -0.98 dB -10.50 dB 3:14 06-Cool Days Are out of Style
DR9 -1.28 dB -12.04 dB 4:40 07-I Always Wanted to Be in the Band
DR8 -1.04 dB -10.35 dB 3:33 08-People
DR9 -0.50 dB -11.56 dB 3:38 09-I Am a Lonely Man
DR8 -0.50 dB -10.47 dB 3:03 10-I Ain't Never Gonna Let You Go
––––––––––––––––––––––––––––––––––––––––

Number of tracks: 10
Official DR value: DR8

Samplerate: 44100 Hz
Channels: 2
Bits per sample: 24
Bitrate: 1502 kbps
Codec: FLAC
================================================================================


Thanks to the Original customer!