Tags
Language
Tags

Spirit - The Family That Plays Together (1968) [Audio Fidelity 2017] PS3 ISO + DSD64 + Hi-Res FLAC

Posted By: HDAtall
Spirit - The Family That Plays Together (1968) [Audio Fidelity 2017] PS3 ISO + DSD64 + Hi-Res FLAC

Spirit - The Family That Plays Together (1968) [Audio Fidelity 2017]
PS3 Rip | SACD ISO | DSD64 2.0 > 1-bit/2.8224 MHz | 56:51 minutes | Scans included | 1,56 GB
or DSD64 2.0 (from SACD-ISO to Tracks.dsf) > 1-bit/2.8224 MHz | Full Scans included | 1,41 GB
or FLAC (carefully converted & encoded to tracks) 24bit/96 kHz | Full Scans included | 1,29 GB
Mastered by Steve Hoffman | Audio Fidelity # AFZ-260

"The Family That Plays Together" was released in 1968. This was the second Spirit album and the group put all the elements together that would make them a legendary band. "The Family That Plays Together" displays the band's ability to play beyond psychedelic rock, jazz and rock & roll. The album's hit single "I Got A Line On You" blasted the album into the top 20. The album has 5 bonus tracks.

On this, the second Spirit album, the group put all of the elements together that made them the legendary (and underrated) band that they were. Jazz, rock & roll, and even classical elements combined to create one of the cleanest, most tasteful syntheses of its day. The group had also improved measurably from their fine debut album, especially in the area of vocals. The album’s hit single, “I Got a Line on You,” boasts especially strong harmonies as well as one of the greatest rock riffs of the period. The first side of this record is a wonderful and seamless suite, and taken in its entirety, one of the greatest sides on Los Angeles rock. The CD reissue also boasts some excellent bonus tracks. “So Little to Say” is one of Jay Ferguson’s finest compositions ever, and the jazz-inspired instrumentals such as “Fog” and “Space Chile” showcase pianist John Locke as one of the most inspired and lyrical players in the rock idiom to date. All in all, a classic album and a true landmark.

Tracklist:

01. I Got a Line On You
02. It Shall Be
03. Poor Richard
04. Silky Sam
05. Drunkard
06. Darlin' If
07. It's All the Same
08. Jewish
09. Dream Within a Dream
10. She Smiles
11. Aren't You Glad
12. Fog [Bobus Track]
13. So Little to Say [Bonus Track]
14. Mellow Fellow [Bonus Track]
15. Now or Anywhere [Bonus Track]
16. Space Chile [Bonus Track]

Mastered for this SACD by Steve Hoffman at Marsh Mastering.
Authoring by Stephen Marsh at Marsh Mastering.

foobar2000 1.6.11 / Dynamic Range Meter 1.1.1

––––––––––––––––––––––––––––––––––––––––
Analyzed: Spirit / The Family That Plays Together
––––––––––––––––––––––––––––––––––––––––

DR Peak RMS Duration Track
––––––––––––––––––––––––––––––––––––––––
DR12 -6.53 dB -21.25 dB 2:39 01-I Got a Line On You
DR13 -6.43 dB -22.90 dB 3:00 02-It Shall Be
DR10 -6.27 dB -19.01 dB 2:32 03-Poor Richard
DR12 -6.47 dB -22.40 dB 3:45 04-Silky Sam
DR14 -7.21 dB -25.40 dB 2:28 05-Drunkard
DR14 -6.32 dB -23.78 dB 3:39 06-Darlin' If
DR12 -6.43 dB -22.29 dB 4:49 07-It's All the Same
DR12 -8.18 dB -22.86 dB 2:48 08-Jewish
DR12 -6.13 dB -20.87 dB 3:02 09-Dream Within a Dream
DR12 -6.54 dB -23.67 dB 2:27 10-She Smiles
DR12 -6.21 dB -21.18 dB 5:34 11-Aren't You Glad
DR11 -9.34 dB -25.97 dB 2:26 12-Fog
DR12 -6.55 dB -22.79 dB 3:01 13-So Little to Say
DR13 -6.86 dB -21.86 dB 3:50 14-Mellow Fellow
DR11 -7.33 dB -19.91 dB 4:23 15-Now or Anywhere
DR11 -6.69 dB -23.17 dB 6:29 16-Space Chile
––––––––––––––––––––––––––––––––––––––––

Number of tracks: 16
Official DR value: DR12

Samplerate: 2822400 Hz / PCM Samplerate: 176400 Hz
Channels: 2
Bits per sample: 1
Bitrate: 5645 kbps
Codec: DSD64


Thanks to PS³SACD!
Uncompressed SACD ISO size > 2,27 GB
>