Tags
Language
Tags

Snowy White - Driving On The 44 (2022) [Official Digital Download]

Posted By: delpotro
Snowy White - Driving On The 44 (2022) [Official Digital Download]

Snowy White - Driving On The 44 (2022)
FLAC (tracks) 24-bit/44,1 kHz | Front Cover | Time - 55:28 minutes | 542 MB
Blues Rock | Label: Snowy White, Official Digital Download

Snowy White is one of a handful of classic blues-orientated British electric guitar players - musicians whose sound, technique and style has echoed the originality of the blues with the excitement of contemporary rock. When recording his many solo albums Snowy White has always gone his own way. Driving On The 44 is a further example of how he has matured and developed over the years. Ten great tracks of relaxed riffs, cool grooves and soulful blues. Snowy White is a man who has nothing to prove but who can still play hot and smoky guitar. Check out the soaring solo on 'Keep On Flying,' the long and edgy workout on 'Blues 22', the mellow guitar sounds on 'Freshwater', and the expressive 'Longtime Blues'. Snowy White - it's all in the music!

Tracklist:
1. Freshwater (07:13)
2. Longtime Blues (05:01)
3. Way Down in the Dark (07:33)
4. Driving on the 44 (05:03)
5. Blues 22 (05:07)
6. Ain't No Secret Thing (05:22)
7. Keep on Flying (06:36)
8. One Man Girl (04:17)
9. Slinky Too (04:40)
10. Lady Luck (So Mean to Me) (04:31)

foobar2000 1.4.1 / Dynamic Range Meter 1.1.1
log date: 2022-08-06 16:20:57

––––––––––––––––––––––––––––––––––––––––
Analyzed: Snowy White / Driving On The 44
––––––––––––––––––––––––––––––––––––––––

DR Peak RMS Duration Track
––––––––––––––––––––––––––––––––––––––––
DR12 -0.03 dB -13.30 dB 7:14 01-Freshwater
DR12 0.00 dB -14.96 dB 5:02 02-Longtime Blues
DR13 0.00 dB -14.67 dB 7:34 03-Way Down in the Dark
DR12 -0.12 dB -15.01 dB 5:04 04-Driving on the 44
DR12 -0.66 dB -14.93 dB 5:07 05-Blues 22
DR12 -0.52 dB -14.75 dB 5:22 06-Ain't No Secret Thing
DR12 0.00 dB -14.66 dB 6:36 07-Keep on Flying
DR13 -0.02 dB -14.63 dB 4:17 08-One Man Girl
DR12 0.00 dB -13.75 dB 4:41 09-Slinky Too
DR14 -0.02 dB -15.34 dB 4:31 10-Lady Luck (So Mean to Me)
––––––––––––––––––––––––––––––––––––––––

Number of tracks: 10
Official DR value: DR12

Samplerate: 44100 Hz
Channels: 2
Bits per sample: 24
Bitrate: 1236 kbps
Codec: FLAC
================================================================================


Thanks to the Original customer!