Tags
Language
Tags
October 2022
Su Mo Tu We Th Fr Sa
25 26 27 28 29 30 1
2 3 4 5 6 7 8
9 10 11 12 13 14 15
16 17 18 19 20 21 22
23 24 25 26 27 28 29
30 31 1 2 3 4 5

Salaputia Brass - Hungarian Pictures (2022) [Official Digital Download 24/48]

Posted By: delpotro
Salaputia Brass - Hungarian Pictures (2022) [Official Digital Download 24/48]

Salaputia Brass - Hungarian Pictures (2022)
FLAC (tracks) 24-bit/48 kHz | Front Cover | Time - 81:58 minutes | 755 MB
Classical, Brass | Label: Oehms Classics, Official Digital Download

When we consider the great musical nations of the world, Hungary perhaps does not come to mind first. But the more we think about it, the higher the country rises in such a ranking. For Salaputia Brass, Hungary has played a leading role since the 20th century. It has established itself not only as a goldmine for instrumentalists, but has also produced many (contemporary) compositions for the developing genre of brass chamber music. This album brings together an overview of contemporary Hungarian music.

Tracklist:
1. Cassazione, Op. 1: I. Preludio (01:32)
2. Cassazione, Op. 1: II. Scherzo (01:32)
3. Cassazione, Op. 1: III. Notturno (02:25)
4. Cassazione, Op. 1: IV. Finale (02:27)
5. Hommage à Bartók: I. Sonatilla (02:33)
6. Hommage à Bartók: II. Passacaglia (02:11)
7. Hommage à Bartók: III. Bizzaria (01:42)
8. Consolations, S. 172 (Excerpts Arr. P. Dörpinghaus for Chamber Ensemble): IV. Quasi adagio (02:52)
9. For Children, Vol. 1, Sz. 42 (Excerpts Arr. P. Dörpinghaus for Chamber Ensemble): No. 6, Country Dance (00:40)
10. Romanian Folk Dances, Sz. 56 (Excerpts Arr. P. Dörpinghaus for Chamber Ensemble): No. 2, Brâul (00:42)
11. Romanian Folk Dances, Sz. 56 (Excerpts Arr. P. Dörpinghaus for Chamber Ensemble): No., 1, Joc cu bâtǎ (01:05)
12. Allegro barbaro, Sz. 49 (Arr. R. McDuffie for Chamber Ensemble) (03:02)
13. Quintettino No. 2 for Brass Ensemble (02:01)
14. Quintettino No. 1 for Brass Ensemble (02:28)
15. Quintettino No. 3 for Brass Ensemble (03:12)
16. Hungarian Pictures, Sz. 97 (Excerpts Arr. C. Sears for Chamber Ensemble): No. 1, Evening in Transylvania (03:24)
17. Hungarian Pictures, Sz. 97 (Excerpts Arr. C. Sears for Chamber Ensemble): No. 2, Bear Dance (01:42)
18. Hungarian Pictures, Sz. 97 (Excerpts Arr. C. Sears for Chamber Ensemble): No. 4, Slightly Tipsy (02:43)
19. Consolations, S. 172 (Excerpts Arr. P. Dörpinghaus for Chamber Ensemble): I. Andante con moto (01:42)
20. 10 Easy Pieces for Piano, Sz. 39 (Excerpts Arr. P. Dörpinghaus for Chamber Ensemble): No. 8, Slovakian Folksong (01:27)
21. 10 Easy Pieces for Piano, Sz. 39 (Excerpts Arr. P. Dörpinghaus for Chamber Ensemble): No. 3, Slovakian Boys' Dance (00:54)
22. 10 Easy Pieces for Piano, Sz. 39 (Excerpts Arr. P. Dörpinghaus for Chamber Ensemble): No. 7, Hungarian Folksong (01:08)
23. For Children, Vol. 1, Sz. 42 (Excerpts Arr. P. Dörpinghaus for Chamber Ensemble): No. 21, Vigoroso (00:44)
24. 14 Bagatelles for Piano, Sz. 38, Op. 6 (Excerpts Arr. P. Hanna for Chamber Ensemble): No. 6, Lento (02:07)
25. 14 Bagatelles for Piano, Sz. 38, Op. 6 (Excerpts Arr. P. Hanna for Chamber Ensemble): No. 14, Valse (02:16)
26. Meditation und Fanfare: I. Meditation (03:06)
27. Meditation und Fanfare: II. Fanfare (01:20)
28. Játék (04:08)
29. 14 Bagatelles for Piano, Sz. 38, Op. 6 (Excerpts Arr. P. Dörpinghaus for Chamber Ensemble): No. 4, Grave (01:11)
30. 14 Bagatelles for Piano, Sz. 38, Op. 6 (Excerpts Arr. P. Hanna for Chamber Ensemble): No. 2, Allegro giocoso (00:53)
31. For Children, Vol. 1, Sz. 42 (Excerpts Arr. P. Dörpinghaus for Chamber Ensemble): No. 17, The Young Bride (01:02)
32. Hungarian Pictures, Sz. 97 (Excerpts Arr. C. Sears for Chamber Ensemble): No. 5, Swineherd's Dance (02:06)
33. Sonata in Blues (08:46)
34. Serenade of the Seven-Headed Dragon: I. Seven Heads – But One Heart (01:48)
35. Serenade of the Seven-Headed Dragon: II. Dancing on the Toes (01:32)
36. Serenade of the Seven-Headed Dragon: III. Shaking Himself (01:48)
37. Serenade of the Seven-Headed Dragon: IV. Spitfire Dance (01:41)
38. Consolations, S. 172 (Excerpts Arr. P. Dörpinghaus for Chamber Ensemble): III. Lento placido (03:50)

foobar2000 1.4.1 / Dynamic Range Meter 1.1.1
log date: 2022-08-16 19:23:35

––––––––––––––––––––––––––––––––––––––––
Analyzed: Salaputia Brass / Hungarian Pictures
––––––––––––––––––––––––––––––––––––––––

DR Peak RMS Duration Track
––––––––––––––––––––––––––––––––––––––––
DR11 -2.04 dB -19.72 dB 1:33 01-Petrovics: Cassazione, Op. 1: I. Preludio
DR12 -2.03 dB -19.20 dB 1:33 02-Petrovics: Cassazione, Op. 1: II. Scherzo
DR10 -5.03 dB -24.68 dB 2:25 03-Petrovics: Cassazione, Op. 1: III. Notturno
DR13 -2.06 dB -20.38 dB 2:28 04-Petrovics: Cassazione, Op. 1: IV. Finale
DR15 -0.44 dB -20.50 dB 2:34 05-Szokolay: Hommage à Bartók: I. Sonatilla
DR12 -6.84 dB -25.64 dB 2:12 06-Szokolay: Hommage à Bartók: II. Passacaglia
DR17 -0.25 dB -22.85 dB 1:42 07-Szokolay: Hommage à Bartók: III. Bizzaria
DR12 -7.33 dB -26.14 dB 2:52 08-Liszt: Consolations, S. 172 (Excerpts Arr. P. Dörpinghaus for Chamber Ensemble): IV. Quasi adagio
DR11 -11.40 dB -28.34 dB 0:41 09-Bartók: For Children, Vol. 1, Sz. 42 (Excerpts Arr. P. Dörpinghaus for Chamber Ensemble): No. 6, Country Dance
DR10 -12.07 dB -28.80 dB 0:42 10-Bartók: Romanian Folk Dances, Sz. 56 (Excerpts Arr. P. Dörpinghaus for Chamber Ensemble): No. 2, Brâul
DR12 -4.43 dB -21.27 dB 1:05 11-Bartók: Romanian Folk Dances, Sz. 56 (Excerpts Arr. P. Dörpinghaus for Chamber Ensemble): No, 1, Joc cu bâtǎ
DR16 -0.75 dB -21.24 dB 3:02 12-Bartók: Allegro barbaro, Sz. 49 (Arr. R. McDuffie for Chamber Ensemble)
DR13 -1.89 dB -19.22 dB 2:01 13-Hidas: Quintettino No. 2 for Brass Ensemble
DR14 -1.68 dB -21.41 dB 2:28 14-Hidas: Quintettino No. 1 for Brass Ensemble
DR14 -2.68 dB -21.98 dB 3:13 15-Hidas: Quintettino No. 3 for Brass Ensemble
DR11 -5.45 dB -23.11 dB 3:25 16-Bartók: Hungarian Pictures, Sz. 97 (Excerpts Arr. C. Sears for Chamber Ensemble): No. 1, Evening in Transylvania
DR14 -0.78 dB -21.26 dB 1:42 17-Bartók: Hungarian Pictures, Sz. 97 (Excerpts Arr. C. Sears for Chamber Ensemble): No. 2, Bear Dance
DR14 -0.32 dB -23.35 dB 2:44 18-Bartók: Hungarian Pictures, Sz. 97 (Excerpts Arr. C. Sears for Chamber Ensemble): No. 4, Slightly Tipsy
DR11 -8.26 dB -23.86 dB 1:42 19-Liszt: Consolations, S. 172 (Excerpts Arr. P. Dörpinghaus for Chamber Ensemble): I. Andante con moto
DR13 -9.73 dB -28.66 dB 1:27 20-Bartók: 10 Easy Pieces for Piano, Sz. 39 (Excerpts Arr. P. Dörpinghaus for Chamber Ensemble): No. 8, Slovakian Folksong
DR12 -7.04 dB -27.33 dB 0:55 21-Bartók: 10 Easy Pieces for Piano, Sz. 39 (Excerpts Arr. P. Dörpinghaus for Chamber Ensemble): No. 3, Slovakian Boys' Dance
DR12 -6.51 dB -22.94 dB 1:09 22-Bartók: 10 Easy Pieces for Piano, Sz. 39 (Excerpts Arr. P. Dörpinghaus for Chamber Ensemble): No. 7, Hungarian Folksong
DR14 -0.45 dB -19.23 dB 0:45 23-Bartók: For Children, Vol. 1, Sz. 42 (Excerpts Arr. P. Dörpinghaus for Chamber Ensemble): No. 21, Vigoroso
DR11 -15.83 dB -31.54 dB 2:08 24-Bartók: 14 Bagatelles for Piano, Sz. 38, Op. 6 (Excerpts Arr. P. Hanna for Chamber Ensemble): No. 6, Lento
DR15 -1.81 dB -24.10 dB 2:16 25-Bartók: 14 Bagatelles for Piano, Sz. 38, Op. 6 (Excerpts Arr. P. Hanna for Chamber Ensemble): No. 14, Valse
DR10 -8.80 dB -25.08 dB 3:07 26-Fischer: Meditation und Fanfare: I. Meditation
DR12 -0.24 dB -19.46 dB 1:20 27-Fischer: Meditation und Fanfare: II. Fanfare
DR14 -1.15 dB -19.69 dB 4:08 28-Hidas: Játék
DR12 -7.76 dB -25.33 dB 1:11 29-Bartók: 14 Bagatelles for Piano, Sz. 38, Op. 6 (Excerpts Arr. P. Dörpinghaus for Chamber Ensemble): No. 4, Grave
DR14 -5.16 dB -27.98 dB 0:53 30-Bartók: 14 Bagatelles for Piano, Sz. 38, Op. 6 (Excerpts Arr. P. Hanna for Chamber Ensemble): No. 2, Allegro giocoso
DR9 -9.02 dB -24.12 dB 1:02 31-Bartók: For Children, Vol. 1, Sz. 42 (Excerpts Arr. P. Dörpinghaus for Chamber Ensemble): No. 17, The Young Bride
DR12 -1.85 dB -18.82 dB 2:07 32-Bartók: Hungarian Pictures, Sz. 97 (Excerpts Arr. C. Sears for Chamber Ensemble): No. 5, Swineherd's Dance
DR13 -1.84 dB -20.39 dB 8:46 33-Barabás: Sonata in Blues
DR13 -1.03 dB -18.41 dB 1:49 34-Ránki: Serenade of the Seven-Headed Dragon: I. Seven Heads – But One Heart
DR14 -2.38 dB -22.02 dB 1:32 35-Ránki: Serenade of the Seven-Headed Dragon: II. Dancing on the Toes
DR14 -1.97 dB -25.11 dB 1:49 36-Ránki: Serenade of the Seven-Headed Dragon: III. Shaking Himself
DR13 -1.02 dB -18.26 dB 1:42 37-Ránki: Serenade of the Seven-Headed Dragon: IV. Spitfire Dance
DR12 -4.52 dB -23.20 dB 3:50 38-Liszt: Consolations, S. 172 (Excerpts Arr. P. Dörpinghaus for Chamber Ensemble): III. Lento placido
––––––––––––––––––––––––––––––––––––––––

Number of tracks: 38
Official DR value: DR13

Samplerate: 48000 Hz
Channels: 2
Bits per sample: 24
Bitrate: 1280 kbps
Codec: FLAC
================================================================================


Thanks to the Original customer!