Tags
Language
Tags
April 2024
Su Mo Tu We Th Fr Sa
31 1 2 3 4 5 6
7 8 9 10 11 12 13
14 15 16 17 18 19 20
21 22 23 24 25 26 27
28 29 30 1 2 3 4

Niko Seibold's Elfton Ensemble - Grow With The Flow (2024) [Official Digital Download 24/48]

Posted By: delpotro
Niko Seibold's Elfton Ensemble - Grow With The Flow (2024) [Official Digital Download 24/48]

Niko Seibold's Elfton Ensemble - Grow With The Flow (2024)
FLAC (tracks) 24-bit/48 kHz | Front Cover | Time - 45:47 minutes | 530 MB
Contemporary Jazz | Label: Hout Records, Official Digital Download

"The term ‘Northern European Jazz’ often conjures up images of open fjords accompanied by a spacious minimal soundscape alluding to the greatness of mountains and the insignificance of one’s existence. A humbling meditative introspection being the listeners emotional response. ‘Grow With The Flow’ evokes an evolutionary deeper reflection, encouraging the listener to imagine a world without borders, and inspires one to consider each individual’s responsibility in bringing border-less existence into fruition. A fine balance between quiet gentle pacing and a driving yet measured forward motion.

Niko’s writing seamlessly blends Hermetoesque and Turkish folkloric melodies, natural use of odd time grooves, delicate orchestration often with a nod to Mahavishnu Orchestra and the fiery sound of New York’s jazz scene. The rich tapestry of orchestrated layers, unpredictable ostinati and contrapuntal crossings is given spontaneous breath by Jérémie Krüttli (bass) and Paulo Almeida (drums) allowing each improvised section to fly, stratospherically.

An egoless composite of excellent musicians, fully present and invested. Every note heartfelt and altruistically meaningful. A universal expression of where we have come from and where we are heading. 'Grow With The Flow' is the true definition of ‘Modern Jazz’ in 2024."

Niko Seibold (compositions, arrangements and orchestrations, alto and soprano saxophones, bass clarinet)
Song Yi Jeon (vocals)
Anne-Lise Teruel (concert flute, alto flute, piccolo)
Simon Spiess (tenor sax, bass clarinet)
Fabian Willmann (tenor sax, bass clarinet)
Alexandre Zanetta (french horn)
Raphael Rossé (trombone, euphonium)
Òscar Latorre (trumpet)
Vincent Millioud (violin)
Baptiste van de Wiele (violin)
Güldeste Mamaç (viola)
Ambrosius Huber (violoncello)
Esther Sévérac (harp)
Fabio Gouvea (acustic and electric guitar)
Jim Hart (vibraphone, percussion)
Jérémie Krüttli (double and electric bass)
Paulo Almeida (drum set)

Tracklist:
01. Rodère
02. While She Sleeps
03. Gonda Intro
04. Gonda
05. Tokyo Drifter
06. Gecho

foobar2000 1.4.1 / Dynamic Range Meter 1.1.1
log date: 2024-03-02 16:58:04

––––––––––––––––––––––––––––––––––––––––
Analyzed: Niko Seibold / Grow With The Flow
––––––––––––––––––––––––––––––––––––––––

DR Peak RMS Duration Track
––––––––––––––––––––––––––––––––––––––––
DR9 -0.50 dB -11.77 dB 14:40 01-Rodère
DR8 -0.50 dB -12.65 dB 12:37 02-While She Sleeps
DR10 -2.93 dB -16.29 dB 2:16 03-Gonda Intro
DR8 -0.50 dB -10.07 dB 8:36 04-Gonda
DR8 -0.50 dB -10.32 dB 6:55 05-Tokyo Drifter
DR8 -1.95 dB -15.00 dB 0:44 06-Gecho
––––––––––––––––––––––––––––––––––––––––

Number of tracks: 6
Official DR value: DR8

Samplerate: 48000 Hz
Channels: 2
Bits per sample: 24
Bitrate: 1336 kbps
Codec: FLAC
================================================================================


Thanks to the Original customer!