Tags
Language
Tags

Niagara - Parva Naturalia (2022) [Official Digital Download]

Posted By: delpotro
Niagara - Parva Naturalia (2022) [Official Digital Download]

Niagara - Parva Naturalia (2022)
FLAC (tracks) 24-bit/44,1 kHz | Front Cover | Time - 42:33 minutes | 428 MB
Experimental Electronic | Label: Disciples, Official Digital Download

A compilation of tracks from out-of-print 12”s and rare CD-Rs from the Lisbon-based trio. The tracks are united by a sense of live improvisation with electronic gear, even as they stylistically run a wide gamut, taking in mutant disco, raw acid, post-punk, lo-fi house, tropical ambient and unclassifiable experiments in sound.

Most closely associated with their home city’s Principe Discos label, Niagara have also self-released a number of homemade CD-Rs on their own Ascender imprint, and recently dropped Veneza, a collection of beatless excursions recorded at the 2017 Venice Biennale. Parva Naturalia follows an album of brand new ambient pieces, Magna Moralia, released as a limited edition cassette and digital edition on Disciples in December 2021.

Tracklist:
1. SEE (05:27)
2. Islington Inn (01:48)
3. Félix 3 (Guarda-Costas) (07:57)
4. 3 (05:29)
5. Tribunal (01:59)
6. Jordão (04:23)
7. Orion (06:54)
8. Calor (01:42)
9. Incendiada (06:50)

foobar2000 1.4.1 / Dynamic Range Meter 1.1.1
log date: 2022-08-06 16:20:08

––––––––––––––––––––––––––––––––––––––––
Analyzed: Niagara / Parva Naturalia
––––––––––––––––––––––––––––––––––––––––

DR Peak RMS Duration Track
––––––––––––––––––––––––––––––––––––––––
DR8 -0.49 dB -10.23 dB 5:28 01-SEE
DR8 -0.49 dB -9.95 dB 1:49 02-Islington Inn
DR4 -0.49 dB -6.02 dB 7:58 03-Félix 3 (Guarda-Costas)
DR7 -0.49 dB -9.86 dB 5:29 04-3
DR9 -0.49 dB -10.70 dB 1:59 05-Tribunal
DR7 -0.49 dB -8.47 dB 4:24 06-Jordão
DR12 -0.49 dB -13.89 dB 6:55 07-Orion
DR10 -0.49 dB -13.82 dB 1:42 08-Calor
DR11 -0.49 dB -13.48 dB 6:50 09-Incendiada
––––––––––––––––––––––––––––––––––––––––

Number of tracks: 9
Official DR value: DR8

Samplerate: 44100 Hz
Channels: 2
Bits per sample: 24
Bitrate: 1456 kbps
Codec: FLAC
================================================================================


Thanks to the Original customer!