Tags
Language
Tags
June 2024
Su Mo Tu We Th Fr Sa
26 27 28 29 30 31 1
2 3 4 5 6 7 8
9 10 11 12 13 14 15
16 17 18 19 20 21 22
23 24 25 26 27 28 29
30 1 2 3 4 5 6

Les Abranis - Amazigh Freedom Rock 1973 – 1983 (2023) [Official Digital Download 24/96]

Posted By: delpotro
Les Abranis - Amazigh Freedom Rock 1973 – 1983 (2023) [Official Digital Download 24/96]

Les Abranis - Amazigh Freedom Rock 1973 – 1983 (2023)
FLAC (tracks) 24-bit/96 kHz | Front Cover | Time - 41:37 minutes | 867 MB
World, Psychedelic Rock, Funk, Disco, Electronic | Label: Les Disques Bongo Joe, Official Digital Download

Les Disques Bongo Joe return to the scorching Kabyle rock of Abranis, the pioneering Algerian band that blended traditional Berber music with western rock, folk, disco, and funk, all the while proudly celebrating their Kabyle heritage.

Amazigh Freedom Rock is a comprehensive look into their discography, from the garage-rock experimentations of their early days to their lushly orchestrated North African fusion masterpieces of the 1980s. The Abranis story begins in the mid-sixties, when Shamy El Baz and Karim Abdenou crossed paths in one of Paris' bohemian neighborhoods. Both were Kabyle, the Berber people from Algeria’s northern regions, both loved rock music, and both were passionate about fostering a modern Algerian sound, as inspired by Kabyle rhythms and melodies as it was by western rock. The two musicians founded Les Abranis in 1967. Together they experimented by mixing Kabyle vocals and melodies with garage and psych-rock but as the '70s progressed they increasingly moved away from the garage and psychedelia of their early days and began to interpret their Kabyle repertoire in more open and creative ways melting prog rock, jazz and some early electronic influences.

Over 11 electrifying tracks, Amazigh Freedom Rock 1973-1983 highlights their legacy as the underground kings of Kabyle rock.

Tracklist:
01. Athedjaladde
02. Chenar Le Blues
03. Akoudar
04. Avehri
05. Id Ed Was
06. Ayetheri A L'Aftar
07. Therrza Rathwenza
08. Achethkhi
09. Thilelli
10. El Guoum Agui
11. Mmliyi Kan

foobar2000 1.4.1 / Dynamic Range Meter 1.1.1
log date: 2023-05-07 12:20:43

––––––––––––––––––––––––––––––––––––––––
Analyzed: Les Abranis / Amazigh Freedom Rock 1973 – 1983
––––––––––––––––––––––––––––––––––––––––

DR Peak RMS Duration Track
––––––––––––––––––––––––––––––––––––––––
DR9 -0.15 dB -10.24 dB 4:22 01-Athedjaladde
DR10 -0.15 dB -11.25 dB 3:19 02-Chenar Le Blues
DR11 -0.15 dB -13.52 dB 4:16 03-Akoudar
DR10 -0.15 dB -11.92 dB 3:25 04-Avehri
DR11 -0.15 dB -12.45 dB 3:58 05-Id Ed Was
DR9 -0.15 dB -10.61 dB 2:44 06-Ayetheri A L'Aftar
DR9 -0.15 dB -10.38 dB 5:19 07-Therrza Rathwenza
DR11 -0.15 dB -11.99 dB 4:30 08-Achethkhi
DR10 -0.15 dB -11.78 dB 3:02 09-Thilelli
DR9 -0.15 dB -10.13 dB 2:59 10-El Guoum Agui
DR10 -0.15 dB -12.14 dB 3:43 11-Mmliyi Kan
––––––––––––––––––––––––––––––––––––––––

Number of tracks: 11
Official DR value: DR10

Samplerate: 96000 Hz
Channels: 2
Bits per sample: 24
Bitrate: 2931 kbps
Codec: FLAC
================================================================================


Thanks to the Original customer!