Tags
Language
Tags

Sächsischer Staatsopernchor Dresden, Dresdner Philharmonie & Daniel Oren - Verdi: La traviata (2022) [Digital Download 24/192]

Posted By: delpotro
Sächsischer Staatsopernchor Dresden, Dresdner Philharmonie & Daniel Oren - Verdi: La traviata (2022) [Digital Download 24/192]

Lisette Oropesa, René Barbera, Lester Lynch, Sächsischer Staatsopernchor Dresden, Dresdner Philharmonie & Daniel Oren - Verdi: La traviata (2022)
FLAC (tracks) 24-bit/192 kHz | Front Cover & Digital Booklet | Time - 134:56 minutes | 4,72 GB
Classical, Opera | Label: Pentatone, Official Digital Download

The Dresdner Philharmonie, Sächsischer Staatsopernchor Dresden and conductor Daniel Oren present Verdi’s masterpiece La Traviata, together with a stellar cast including René Barbera as Alfredo, Lester Lynch as Germont, and world star soprano Lisette Oropesa as Violetta. Verdi’s opera from 1853 was revolutionary in the sense that it presented a subject of its own time, rather than the usual historically remote stories. Interestingly enough, this tragic story of a woman sacrificing her love to save the honour of her beloved’s family still feels as fresh and topical as ever before, explaining its unrelenting popularity. La Traviata is an endless outpour of memorable melodies with a gripping dramatic pace, as well as a tale that is both heartrending and provocative. The main soprano role gradually shifts from coloratura virtuosity to a more lyrical, dramatic idiom when the tragedy progresses, and this performance shows Oropesa’s fluency in both styles. After having sung the title role in the greatest opera houses worldwide, this studio recording captures her unparalleled interpretation for generations to come.

Star soprano Lisette Oropesa made her PENTATONE debut with Ombra Compagna; Mozart Concert Arias in 2021. Lester Lynch has a vast PENTATONE discography, including Puccini’s Madama Butterfly, La Fanciulla del West (both 2021) and Il Tabarro (2020), as well as Mascagni’s Cavalleria rusticana (2020) and Verdi’s Otello (2017). The Dresdner Philharmonie featured on those recordings of Puccini’s Il Tabarro and Mascagni’s Cavalleria rusticana, while also releasing acclaimed recordings of Beethoven’s Fidelio (2021) and Weber’s Der Freischütz (2019) on PENTATONE. Daniel Oren and René Barbera, who both enjoy a thriving career on the operatic stage, make their PENTATONE debut.

Tracklist:
Disc 1 (01:05:43)
1. Daniel Oren & Dresdner Philharmonie – La traviata, Act I: Preludio (03:48)
2. Lisette Oropesa, René Barbera, Ilseyar Khayrullova, Francesco Pittari, Biagio Pizzuti, Allen Boxer, Alexander Köpeczy, Daniel Oren, Dresdner Philharmonie & Sächsischer Staatsopernchor Dresden – La traviata, Act I Scene 1: Dell'invito trascorsa è già l'ora (04:40)
3. Lisette Oropesa, René Barbera, Ilseyar Khayrullova, Francesco Pittari, Biagio Pizzuti, Allen Boxer, Alexander Köpeczy, Daniel Oren, Dresdner Philharmonie & Sächsischer Staatsopernchor Dresden – La traviata, Act I Scene 2 Libiamo ne' lieti calici (03:00)
4. Lisette Oropesa, René Barbera, Ilseyar Khayrullova, Francesco Pittari, Biagio Pizzuti, Allen Boxer, Alexander Köpeczy, Daniel Oren, Dresdner Philharmonie & Sächsischer Staatsopernchor Dresden – La traviata, Act I Scene 2: Che è ciò (07:21)
5. Ilseyar Khayrullova, Francesco Pittari, Biagio Pizzuti, Allen Boxer, Alexander Köpeczy, Daniel Oren, Dresdner Philharmonie & Sächsischer Staatsopernchor Dresden – La traviata, Act I Scene 4: Si ridesta in ciel l’aurora (01:45)
6. Lisette Oropesa, René Barbera, Daniel Oren & Dresdner Philharmonie – La traviata, Act I Scene 5: È strano (11:35)
7. René Barbera, Menna Cazel, Daniel Oren & Dresdner Philharmonie – La traviata, Act II Scene 1: Lunge da lei (07:26)
8. Lisette Oropesa, Lester Lynch, Menna Cazel, Tobias Schrader, Daniel Oren & Dresdner Philharmonie – La traviata, Act II Scene 4: Alfredo? (21:32)
9. Lisette Oropesa, Menna Cazel, René Barbera, Daniel Oren & Dresdner Philharmonie – La traviata, Act II Scene 6: Dammi tu forza (04:36)

Disc 2 (01:09:01)
1. Lester Lynch, René Barbera, Tobias Schrader, Alexander Födisch, Daniel Oren & Dresdner Philharmonie – La traviata, Act II Scene 7: Ah, vive sol quel core (11:10)
2. Alexander Köpeczy, Ilseyar Khayrullova, Biagio Pizzuti, Daniel Oren & Dresdner Philharmonie – La traviata, Act II Scene 9: Avrem lieta di maschere la notte (01:02)
3. Alexander Köpeczy, Ilseyar Khayrullova, Biagio Pizzuti, Daniel Oren, Dresdner Philharmonie & Sächsischer Staatsopernchor Dresden – La traviata, Act II Scene 10: Noi siamo zingarelle (02:54)
4. Alexander Köpeczy, Ilseyar Khayrullova, Biagio Pizzuti, Francesco Pittari, Daniel Oren, Dresdner Philharmonie & Sächsischer Staatsopernchor Dresden – La traviata, Act II Scene 11: Di Madride noi siam mattadori (02:51)
5. René Barbera, Allen Boxer, Alexander Köpeczy, Ilseyar Khayrullova, Biagio Pizzuti, Francesco Pittari, Daniel Oren, Dresdner Philharmonie & Sächsischer Staatsopernchor Dresden – La traviata, Act II Scene 12: Alfredo! Voi! (00:34)
6. René Barbera, Allen Boxer, Lisette Oropesa, Ilseyar Khayrullova, Francesco Pittari, Reinhold Schreyer-Morlock, Biagio Pizzuti, Daniel Oren, Dresdner Philharmonie & Sächsischer Staatsopernchor Dresden – La traviata, Act II Scene 12: Qui desiata giungi (03:48)
7. René Barbera, Allen Boxer, Lisette Oropesa, Alexander Köpeczy, Ilseyar Khayrullova, Biagio Pizzuti, Francesco Pittari, Daniel Oren, Dresdner Philharmonie & Sächsischer Staatsopernchor Dresden – La traviata, Act II Scene 13: Invitato a qui seguirmi (04:00)
8. Allen Boxer, Alexander Köpeczy, Biagio Pizzuti, Francesco Pittari, Daniel Oren, Dresdner Philharmonie & Sächsischer Staatsopernchor Dresden – La traviata, Act II Scene 15: Oh, infamia orribile (00:31)
9. Lisette Oropesa, Lester Lynch, René Barbera, Allen Boxer, Alexander Köpeczy, Ilseyar Khayrullova, Biagio Pizzuti, Francesco Pittari, Daniel Oren, Dresdner Philharmonie & Sächsischer Staatsopernchor Dresden – La traviata, Act II Scene 15: Di sprezzo degno (06:34)
10. Daniel Oren & Dresdner Philharmonie – La traviata, Act III Scene 1: Andante (03:41)
11. Lisette Oropesa, Menna Cazel, Alexander Köpeczy, Daniel Oren & Dresdner Philharmonie – La traviata, Act III Scene 1: Annina? (04:42)
12. Lisette Oropesa, Daniel Oren & Dresdner Philharmonie – La traviata, Act III Scene 4: Teneste la promessa (01:44)
13. Lisette Oropesa, Daniel Oren & Dresdner Philharmonie – La traviata, Act III Scene 4: Addio, del passato (06:22)
14. Daniel Oren, Dresdner Philharmonie & Sächsischer Staatsopernchor Dresden – La traviata, Act III Scene 4: Largo al quadrupede sir della festa (00:53)
15. Lisette Oropesa, René Barbera, Menna Cazel, Daniel Oren & Dresdner Philharmonie – La traviata, Act III Scene 5: Signora… (11:53)
16. Lisette Oropesa, Lester Lynch, René Barbera, Menna Cazel, Alexander Köpeczy, Daniel Oren & Dresdner Philharmonie – La traviata, Act III Scene 6: Ah Violetta! (06:22)

foobar2000 1.4.1 / Dynamic Range Meter 1.1.1
log date: 2022-05-24 18:39:39

––––––––––––––––––––––––––––––––––––––––
Analyzed: Lisette Oropesa, René Barbera, Lester Lynch, Sächsischer Staatsopernchor Dresden, Dresdner Philharmonie & Daniel Oren / Verdi: La traviata
––––––––––––––––––––––––––––––––––––––––

DR Peak RMS Duration Track
––––––––––––––––––––––––––––––––––––––––
DR12 -14.21 dB -33.31 dB 3:49 01-Verdi: La traviata, Act I: Preludio
DR13 -0.54 dB -19.64 dB 4:40 02-Verdi: La traviata, Act I Scene 1: Dell'invito trascorsa è già l'ora
DR13 -0.54 dB -18.79 dB 3:00 03-Verdi: La traviata, Act I Scene 2 Libiamo ne' lieti calici
DR15 -5.10 dB -25.85 dB 7:22 04-Verdi: La traviata, Act I Scene 2: Che è ciò
DR10 -0.48 dB -14.65 dB 1:46 05-Verdi: La traviata, Act I Scene 4: Si ridesta in ciel l’aurora
DR13 -1.42 dB -20.76 dB 11:36 06-Verdi: La traviata, Act I Scene 5: È strano
DR13 -1.09 dB -20.65 dB 7:27 07-Verdi: La traviata, Act II Scene 1: Lunge da lei
DR15 -0.30 dB -20.95 dB 21:32 08-Verdi: La traviata, Act II Scene 4: Alfredo?
DR13 -1.12 dB -20.34 dB 4:36 09-Verdi: La traviata, Act II Scene 6: Dammi tu forza
DR16 -1.03 dB -23.72 dB 11:10 10-Verdi: La traviata, Act II Scene 7: Ah, vive sol quel core
DR14 -2.62 dB -23.67 dB 1:03 11-Verdi: La traviata, Act II Scene 9: Avrem lieta di maschere la notte
DR16 -1.18 dB -24.50 dB 2:55 12-Verdi: La traviata, Act II Scene 10: Noi siamo zingarelle
DR12 -0.98 dB -18.48 dB 2:52 13-Verdi: La traviata, Act II Scene 11: Di Madride noi siam mattadori
DR13 -3.27 dB -22.72 dB 0:34 14-Verdi: La traviata, Act II Scene 12: Alfredo! Voi!
DR13 -2.41 dB -22.04 dB 3:49 15-Verdi: La traviata, Act II Scene 12: Qui desiata giungi
DR13 -0.94 dB -19.16 dB 4:01 16-Verdi: La traviata, Act II Scene 13: Invitato a qui seguirmi
DR8 -0.51 dB -11.80 dB 0:32 17-Verdi: La traviata, Act II Scene 15: Oh, infamia orribile
DR11 -0.41 dB -17.19 dB 6:34 18-Verdi: La traviata, Act II Scene 15: Di sprezzo degno
DR13 -13.20 dB -34.04 dB 3:42 19-Verdi: La traviata, Act III Scene 1: Andante
DR15 -5.84 dB -28.54 dB 4:43 20-Verdi: La traviata, Act III Scene 1: Annina?
DR13 -4.62 dB -24.95 dB 1:44 21-Verdi: La traviata, Act III Scene 4: Teneste la promessa
DR10 -4.16 dB -22.69 dB 6:22 22-Verdi: La traviata, Act III Scene 4: Addio, del passato
DR11 -5.58 dB -21.99 dB 0:54 23-Verdi: La traviata, Act III Scene 4: Largo al quadrupede sir della festa
DR14 -0.88 dB -20.66 dB 11:54 24-Verdi: La traviata, Act III Scene 5: Signora…
DR11 -0.30 dB -18.20 dB 6:22 25-Verdi: La traviata, Act III Scene 6: Ah Violetta!
––––––––––––––––––––––––––––––––––––––––

Number of tracks: 25
Official DR value: DR13

Samplerate: 192000 Hz
Channels: 2
Bits per sample: 24
Bitrate: 4995 kbps
Codec: FLAC
================================================================================


Thanks to the Original customer!