Tags
Language
Tags
September 2022
Su Mo Tu We Th Fr Sa
28 29 30 31 1 2 3
4 5 6 7 8 9 10
11 12 13 14 15 16 17
18 19 20 21 22 23 24
25 26 27 28 29 30 1

Danish Chamber Orchestra & Ádám Fischer - Brahms: Complete Symphonies (2022) [Official Digital Download 24/192]

Posted By: delpotro
Danish Chamber Orchestra & Ádám Fischer - Brahms: Complete Symphonies (2022) [Official Digital Download 24/192]

Danish Chamber Orchestra & Ádám Fischer - Brahms: Complete Symphonies (2022)
FLAC (tracks) 24-bit/192 kHz | Front Cover & Digital Booklet | Time - 152:06 minutes | 4,61 GB
Classical | Label: Naxos Records, Official Digital Download

Brahms was 43 years old when, after a long period of maturation, his First Symphony was published. Felix Weingartner commented on it ‘taking hold like the claw of a lion’ and its urgency marked a new phase in Brahms’ musical development. The Second Symphony is traditionally seen as the pastoral element in the cycle, while the Third, with its melodic beauty, has the courage to end quietly, an act of astonishing serenity. The compelling Passacaglia finale of the Fourth Symphony represents a fitting summation to one of the greatest symphonic cycles in the classical canon.

Tracklist:
Disc 1 (43:31)
1. Symphony No. 1 in C Minor, Op. 68: I. Un poco sostenuto - Allegro (14:53)
2. Symphony No. 1 in C Minor, Op. 68: II. Andante sostenuto (07:47)
3. Symphony No. 1 in C Minor, Op. 68: III. Un poco allegretto e grazioso (04:17)
4. Symphony No. 1 in C Minor, Op. 68: IV. Adagio - Allegro non troppo, ma con brio (16:34)

Disc 2 (01:14:13)
1. Symphony No. 2 in D Major, Op. 73: I. Allegro non troppo (18:13)
2. Symphony No. 2 in D Major, Op. 73: II. Adagio non troppo (08:16)
3. Symphony No. 2 in D Major, Op. 73: III. Allegretto grazioso (quasi andantino) (04:47)
4. Symphony No. 2 in D Major, Op. 73: IV. Allegro con spirito (08:34)
5. Symphony No. 3 in F Major, Op. 90: I. Allegro con brio (12:39)
6. Symphony No. 3 in F Major, Op. 90: II. Andante (08:03)
7. Symphony No. 3 in F Major, Op. 90: III. Poco allegretto (05:39)
8. Symphony No. 3 in F Major, Op. 90: IV. Allegro (08:02)

Disc 3 (34:13)
1. Symphony No. 4 in E Minor, Op. 98: I. Allegro non troppo (10:41)
2. Symphony No. 4 in E Minor, Op. 98: II. Andante moderato (08:47)
3. Symphony No. 4 in E Minor, Op. 98: III. Allegro giocoso (05:39)
4. Symphony No. 4 in E Minor, Op. 98: IV. Allegro energico e passionato (09:06)

foobar2000 1.4.1 / Dynamic Range Meter 1.1.1
log date: 2022-08-16 16:42:22

––––––––––––––––––––––––––––––––––––––––
Analyzed: Danish Chamber Orchestra & Ádám Fischer / Brahms: Complete Symphonies
––––––––––––––––––––––––––––––––––––––––

DR Peak RMS Duration Track
––––––––––––––––––––––––––––––––––––––––
DR17 -1.49 dB -24.23 dB 14:53 01-Brahms: Symphony No. 1 in C Minor, Op. 68: I. Un poco sostenuto - Allegro
DR15 -11.25 dB -31.93 dB 7:47 02-Brahms: Symphony No. 1 in C Minor, Op. 68: II. Andante sostenuto
DR14 -8.51 dB -28.47 dB 4:18 03-Brahms: Symphony No. 1 in C Minor, Op. 68: III. Un poco allegretto e grazioso
DR17 -0.55 dB -23.03 dB 16:35 04-Brahms: Symphony No. 1 in C Minor, Op. 68: IV. Adagio - Allegro non troppo, ma con brio
DR16 -2.02 dB -25.01 dB 18:14 05-Brahms: Symphony No. 2 in D Major, Op. 73: I. Allegro non troppo
DR16 -3.56 dB -26.92 dB 8:17 06-Brahms: Symphony No. 2 in D Major, Op. 73: II. Adagio non troppo
DR17 -10.09 dB -32.99 dB 4:47 07-Brahms: Symphony No. 2 in D Major, Op. 73: III. Allegretto grazioso (quasi andantino)
DR15 -0.89 dB -21.60 dB 8:35 08-Brahms: Symphony No. 2 in D Major, Op. 73: IV. Allegro con spirito
DR15 -2.62 dB -24.06 dB 12:40 09-Brahms: Symphony No. 3 in F Major, Op. 90: I. Allegro con brio
DR16 -5.42 dB -30.67 dB 8:04 10-Brahms: Symphony No. 3 in F Major, Op. 90: II. Andante
DR14 -9.62 dB -33.66 dB 5:40 11-Brahms: Symphony No. 3 in F Major, Op. 90: III. Poco allegretto
DR15 -0.66 dB -22.44 dB 8:02 12-Brahms: Symphony No. 3 in F Major, Op. 90: IV. Allegro
DR17 -0.26 dB -24.20 dB 10:42 13-Brahms: Symphony No. 4 in E Minor, Op. 98: I. Allegro non troppo
DR18 -1.84 dB -27.67 dB 8:48 14-Brahms: Symphony No. 4 in E Minor, Op. 98: II. Andante moderato
DR15 -3.82 dB -24.30 dB 5:39 15-Brahms: Symphony No. 4 in E Minor, Op. 98: III. Allegro giocoso
DR16 -1.18 dB -22.95 dB 9:06 16-Brahms: Symphony No. 4 in E Minor, Op. 98: IV. Allegro energico e passionato
––––––––––––––––––––––––––––––––––––––––

Number of tracks: 16
Official DR value: DR16

Samplerate: 192000 Hz
Channels: 2
Bits per sample: 24
Bitrate: 4347 kbps
Codec: FLAC
================================================================================


Thanks to the Original customer!