Charles Trenet - The 100 Greatest Hits (2014) [Official Digital Download 24bit/96kHz]

Posted By: HDV
Charles Trenet - The 100 Greatest Hits (2014) [Official Digital Download 24bit/96kHz]

Charles Trenet - The 100 Greatest Hits (2014)
FLAC (tracks) 24 bit/96 kHz | Time - 286:04 minutes | 2,95 GB
Studio Master, Official Digital Download | Artwork: Front cover

Louis Charles Auguste Claude Trenet, known as Charles Trenet, was a French singer and songwriter. He was most famous for his recordings from the late 1930s until the mid-1950s, though his career continued through the 1990s. In an era in which it was unusual for singers to write their own material, Trenet wrote prolifically and declined to record any but his own songs.

Tracklist:

01 - Je chante
02 - La mer (Live)
03 - Boum !
04 - Fleur bleue
05 - Y'a d' la joie
06 - Pigeon vole
07 - Le grand café
08 - Verlaine
09 - Biguine à bango
10 - Revoir Paris
11 - Ah ! Dis, ah ! Dis, ah ! Bonjour
12 - La cigale et la fourmi
13 - Il pleut dans ma chambre
14 - Coin de rue
15 - Paule sur mes épaules
16 - En attendant ma belle
17 - Nuit d'hiver
18 - Pauvre georges andré
19 - Le piano de la plage
20 - Les relations mondaines
21 - Sacré farceur
22 - Gala pote
23 - Du soir au lendemain
24 - Mon vieil Atlantique
25 - Paie tes dettes
26 - Les filles de chez nous
27 - Ma philosophie
28 - De la fenêtre d'en haut (Live)
29 - La folle complainte (Live)
30 - Dans les pharmacies (Live)
31 - Mam'zelle clio (Live)
32 - N'y pensez pas trop (Live)
33 - Une noix (Live)
34 - Vous oubliez votre cheval (Live)
35 - L'héritage infernal (Live)
36 - France-dimanche (Live)
37 - Au revoir mes amis (Live)
38 - Ohé Paris (Live)
39 - L'âme des poètes (Live)
40 - Le roi dagobert (Live)
41 - Histoire d'un monsieur (Live)
42 - Dans les rues de québec (Live)
43 - Le serpent python (Live)
44 - Le chêne et le roseau (Live)
45 - Y'a d'la joie (Live)
46 - Les olivettes
47 - Chanson pour noël
48 - Bouquet de joie
49 - Font-romeu
50 - Printemps à rio
51 - Ah ! Dis ah ! Dis ah ! Bonjour
52 - On danse à Paris
53 - Le cœur de Paris
54 - Les coupeurs de bois
55 - Les chansons de la nuit
56 - Route nationale 7
57 - Moi, j'aime le music-hall
58 - L'âne et le gendarme
59 - Quand vous entendrez mam'zelle
60 - La java du diable
61 - À la porte du garage
62 - La petite musique (Live)
63 - Lorelei (Live)
64 - Où sont-ils donc ? (Live)
65 - Le noël des enfants noirs (Live)
66 - J'ai mordu dans le fruit (Live)
67 - Dis-moi quel est ton nom (Live)
68 - Bonsoir jolie madame (Live)
69 - La folie complainte (Live)
70 - Rien ne peut changer ma joie (Live)
71 - Orphée (Live)
72 - Les voix du ciel (Live)
73 - Le jardin extraordinaire (Live)
74 - Qu'est devenue la madelon ? (Live)
75 - L'horrible tango
76 - La jolie sardane
77 - Giovanni
78 - Cloches, sonnez
79 - Bonsoir, jolie madame
80 - En quittant une ville
81 - Le soleil a rendez-vous avec la lune
82 - La route enchantée
83 - La polka du roi
84 - Terre
85 - Papa pique
86 - La romance de Paris
87 - Un rien me fait chanter
88 - Tu n'as plus de cœur
89 - Mon vieil atlantique
90 - En tournée
91 - La bonne planète
92 - Le jongleur
93 - Par la porte entr'ouverte
94 - Obeis au bey !
95 - Je fais la course avec le train
96 - Les petits regrets
97 - La maison du poète
98 - C'était… C'était… C'était
99 - Gala poté
100 - Le grand partage

Analyzed: Charles Trenet / Charles Trenet: The 100 Greatest Hits
––––––––––––––––––––––––––––––––––––––––

DR Peak RMS Duration Track
––––––––––––––––––––––––––––––––––––––––
DR13 -2.41 dB -20.80 dB 2:28 01-Je chante
DR10 -1.97 dB -15.89 dB 4:06 02-La mer (Live)
DR13 -0.39 dB -18.80 dB 2:30 03-Boum !
DR12 -0.10 dB -17.81 dB 2:34 04-Fleur bleue
DR13 -1.03 dB -18.22 dB 2:05 05-Y'a d' la joie
DR14 -1.31 dB -20.51 dB 3:37 06-Pigeon vole
DR12 -0.74 dB -16.60 dB 1:40 07-Le grand café
DR15 -9.45 dB -27.83 dB 2:45 08-Verlaine
DR14 -1.08 dB -18.84 dB 2:09 09-Biguine à bango
DR15 -5.59 dB -24.96 dB 2:58 10-Revoir Paris
DR13 -2.33 dB -19.39 dB 2:34 11-Ah ! Dis, ah ! Dis, ah ! Bonjour
DR13 -0.30 dB -20.95 dB 2:10 12-La cigale et la fourmi
DR13 -2.30 dB -20.69 dB 2:26 13-Il pleut dans ma chambre
DR12 -4.00 dB -19.89 dB 3:23 14-Coin de rue
DR10 -5.84 dB -19.66 dB 2:16 15-Paule sur mes épaules
DR14 -1.19 dB -20.06 dB 2:19 16-En attendant ma belle
DR13 -3.86 dB -20.28 dB 3:10 17-Nuit d'hiver
DR16 -2.17 dB -20.83 dB 2:08 18-Pauvre georges andré
DR15 -1.13 dB -19.34 dB 2:46 19-Le piano de la plage
DR14 -2.75 dB -19.37 dB 2:03 20-Les relations mondaines
DR14 -3.25 dB -19.94 dB 1:54 21-Sacré farceur
DR13 -3.68 dB -18.94 dB 2:45 22-Gala pote
DR14 -2.77 dB -21.22 dB 3:09 23-Du soir au lendemain
DR14 -1.76 dB -20.42 dB 3:06 24-Mon vieil Atlantique
DR15 -1.73 dB -19.82 dB 2:48 25-Paie tes dettes
DR13 -3.68 dB -19.14 dB 2:05 26-Les filles de chez nous
DR15 -2.06 dB -20.25 dB 2:20 27-Ma philosophie
DR11 -5.04 dB -19.25 dB 3:06 28-De la fenêtre d'en haut (Live)
DR12 -5.16 dB -19.52 dB 4:06 29-La folle complainte (Live)
DR12 -5.34 dB -20.79 dB 3:33 30-Dans les pharmacies (Live)
DR11 -5.49 dB -20.52 dB 3:18 31-Mam'zelle clio (Live)
DR10 -5.91 dB -19.14 dB 2:27 32-N'y pensez pas trop (Live)
DR12 -6.06 dB -21.75 dB 2:34 33-Une noix (Live)
DR11 -5.73 dB -20.39 dB 3:01 34-Vous oubliez votre cheval (Live)
DR11 -6.04 dB -19.42 dB 2:44 35-L'héritage infernal (Live)
DR12 -5.86 dB -20.17 dB 2:30 36-France-dimanche (Live)
DR11 -4.68 dB -19.15 dB 1:15 37-Au revoir mes amis (Live)
DR12 -1.83 dB -18.01 dB 2:50 38-Ohé Paris (Live)
DR13 -3.34 dB -20.30 dB 4:28 39-L'âme des poètes (Live)
DR12 -3.42 dB -19.18 dB 3:36 40-Le roi dagobert (Live)
DR14 -4.68 dB -22.90 dB 4:15 41-Histoire d'un monsieur (Live)
DR12 -3.07 dB -19.17 dB 3:11 42-Dans les rues de québec (Live)
DR12 -3.95 dB -19.46 dB 4:42 43-Le serpent python (Live)
DR14 -4.64 dB -23.01 dB 4:45 44-Le chêne et le roseau (Live)
DR11 -4.35 dB -18.32 dB 2:20 45-Y'a d'la joie (Live)
DR12 -6.74 dB -22.78 dB 1:56 46-Les olivettes
DR11 -4.25 dB -19.75 dB 2:05 47-Chanson pour noël
DR10 -3.93 dB -19.14 dB 2:11 48-Bouquet de joie
DR13 -1.82 dB -20.06 dB 2:08 49-Font-romeu
DR12 -6.51 dB -23.07 dB 2:49 50-Printemps à rio
DR16 -0.70 dB -19.38 dB 2:38 51-Ah ! Dis ah ! Dis ah ! Bonjour
DR12 -2.83 dB -19.04 dB 2:17 52-On danse à Paris
DR15 -1.48 dB -21.16 dB 2:48 53-Le cœur de Paris
DR14 -1.10 dB -19.46 dB 2:39 54-Les coupeurs de bois
DR15 -3.63 dB -22.36 dB 2:54 55-Les chansons de la nuit
DR14 -0.10 dB -18.98 dB 2:38 56-Route nationale 7
DR14 -1.65 dB -20.18 dB 3:40 57-Moi, j'aime le music-hall
DR16 -2.48 dB -22.89 dB 2:53 58-L'âne et le gendarme
DR15 -2.89 dB -20.74 dB 3:34 59-Quand vous entendrez mam'zelle
DR14 -2.72 dB -19.30 dB 2:58 60-La java du diable
DR13 -2.82 dB -18.63 dB 2:31 61-À la porte du garage
DR14 -0.10 dB -17.25 dB 3:26 62-La petite musique (Live)
DR13 -0.10 dB -16.07 dB 2:14 63-Lorelei (Live)
DR13 -0.54 dB -16.01 dB 3:05 64-Où sont-ils donc ? (Live)
DR13 -2.33 dB -18.56 dB 3:14 65-Le noël des enfants noirs (Live)
DR13 -0.10 dB -15.70 dB 2:01 66-J'ai mordu dans le fruit (Live)
DR10 -0.10 dB -13.34 dB 2:22 67-Dis-moi quel est ton nom (Live)
DR12 -0.10 dB -15.05 dB 3:07 68-Bonsoir jolie madame (Live)
DR13 -1.80 dB -18.89 dB 3:13 69-La folie complainte (Live)
DR12 -1.49 dB -16.53 dB 4:19 70-Rien ne peut changer ma joie (Live)
DR12 -1.51 dB -16.07 dB 3:02 71-Orphée (Live)
DR11 -2.50 dB -17.48 dB 3:02 72-Les voix du ciel (Live)
DR12 -1.38 dB -17.50 dB 4:11 73-Le jardin extraordinaire (Live)
DR13 -2.02 dB -18.52 dB 4:06 74-Qu'est devenue la madelon ? (Live)
DR13 -4.05 dB -19.25 dB 2:22 75-L'horrible tango
DR12 -0.10 dB -16.35 dB 2:05 76-La jolie sardane
DR12 -2.33 dB -18.25 dB 3:48 77-Giovanni
DR10 -2.40 dB -16.14 dB 2:43 78-Cloches, sonnez
DR12 -1.03 dB -16.81 dB 3:28 79-Bonsoir, jolie madame
DR11 -1.50 dB -15.65 dB 2:16 80-En quittant une ville
DR13 -1.27 dB -17.41 dB 2:26 81-Le soleil a rendez-vous avec la lune
DR13 -1.95 dB -17.83 dB 3:08 82-La route enchantée
DR14 -0.10 dB -17.55 dB 2:35 83-La polka du roi
DR12 -0.10 dB -15.50 dB 2:31 84-Terre
DR14 -0.10 dB -18.18 dB 3:16 85-Papa pique
DR13 -1.27 dB -16.86 dB 2:48 86-La romance de Paris
DR13 -0.10 dB -15.82 dB 2:12 87-Un rien me fait chanter
DR11 -3.31 dB -16.60 dB 2:18 88-Tu n'as plus de cœur
DR11 -3.83 dB -17.53 dB 3:05 89-Mon vieil atlantique
DR12 -1.94 dB -16.17 dB 3:03 90-En tournée
DR13 -0.78 dB -16.95 dB 2:57 91-La bonne planète
DR13 -0.10 dB -16.67 dB 3:03 92-Le jongleur
DR13 -0.10 dB -17.22 dB 2:39 93-Par la porte entr'ouverte
DR14 -0.10 dB -16.76 dB 2:44 94-Obeis au bey !
DR15 -0.10 dB -16.81 dB 2:39 95-Je fais la course avec le train
DR12 -2.70 dB -19.74 dB 2:34 96-Les petits regrets
DR13 -2.80 dB -19.74 dB 3:39 97-La maison du poète
DR13 -3.50 dB -20.11 dB 3:15 98-C'était… C'était… C'était
DR13 -3.17 dB -17.88 dB 2:44 99-Gala poté
DR12 -4.59 dB -19.26 dB 2:56 100-Le grand partage
––––––––––––––––––––––––––––––––––––––––

Number of tracks: 100
Official DR value: DR13

Samplerate: 96000 Hz
Channels: 2
Bits per sample: 24
Bitrate: 1199 kbps
Codec: FLAC
================================================================================


Thanks to the Original customer!