Tags
Language
Tags

Catrin Finch & Seckou Keita - Echo (2022) [Official Digital Download 24/96]

Posted By: delpotro
Catrin Finch & Seckou Keita - Echo (2022) [Official Digital Download 24/96]

Catrin Finch & Seckou Keita - Echo (2022)
FLAC (tracks) 24-bit/96 kHz | Front Cover & Digital Booklet | Time - 43:55 minutes | 941 MB
World, Classical | Label: bendigedig, Official Digital Download

Echo celebrates the tenth anniversary of an extraordinary partnership between two virtuosos whose previous releases include 2018's album Soar and their 2013 debut Clychau Dibon. Echo marks the third part of this remarkable trilogy. The harp and kora share centuries of history, and Catrin and Seckou create a unique dialogue in a musical alliance of rare empathy, inspired by differences and similarities. Their atmospheric magic crosses genre boundaries, from folk and world music to classical and contemporary as their fingers flow like opposing tributaries into a single river of sound. Echo is the tender triumph of an extraordinary musical partnership that combines harp and kora, the modern and traditional, different cultures and common humanity.

Tracklist:
1. Gobaith (05:14)
2. Chaminuka (05:38)
3. Dimanche (06:03)
4. Dual Rising (06:11)
5. Tabadabang (05:41)
6. Jeleh Calon (06:33)
7. Jula Kuta (08:27)

foobar2000 1.4.1 / Dynamic Range Meter 1.1.1
log date: 2022-05-24 18:34:41

––––––––––––––––––––––––––––––––––––––––
Analyzed: Catrin Finch & Seckou Keita / Echo
––––––––––––––––––––––––––––––––––––––––

DR Peak RMS Duration Track
––––––––––––––––––––––––––––––––––––––––
DR10 -0.30 dB -13.33 dB 5:14 01-Gobaith
DR11 -0.20 dB -14.13 dB 5:39 02-Chaminuka
DR10 -0.20 dB -13.67 dB 6:03 03-Dimanche
DR12 -0.30 dB -14.74 dB 6:11 04-Dual Rising
DR11 -0.30 dB -13.41 dB 5:42 05-Tabadabang
DR11 -0.30 dB -14.12 dB 6:33 06-Jeleh Calon
DR13 -0.30 dB -16.47 dB 8:34 07-Jula Kuta
––––––––––––––––––––––––––––––––––––––––

Number of tracks: 7
Official DR value: DR11

Samplerate: 96000 Hz
Channels: 2
Bits per sample: 24
Bitrate: 2892 kbps
Codec: FLAC
================================================================================


Thanks to the Original customer!