Tags
Language
Tags
November 2022
Su Mo Tu We Th Fr Sa
30 31 1 2 3 4 5
6 7 8 9 10 11 12
13 14 15 16 17 18 19
20 21 22 23 24 25 26
27 28 29 30 1 2 3

Beth Nielsen Chapman - CrazyTown (2022) [Official Digital Download 24/96]

Posted By: delpotro
Beth Nielsen Chapman - CrazyTown (2022) [Official Digital Download 24/96]

Beth Nielsen Chapman - CrazyTown (2022)
FLAC (tracks) 24-bit/96 kHz | Front Cover | Time - 40:55 minutes | 907 MB
Pop Rock, Country Rock, Adult Alternative, Female Vocal | Label: Cooking Vinyl, Official Digital Download

Beth Nielsen Chapman returns with her first full length LP since 2018's Hearts of Glass, and it's her first release on UK based indie label Cooking Vinyl. Twice Grammy nominated and a legend in the folk and singer / songwriter world, she's written for & with the likes of Bonnie Raitt, Elton John, Willy Nelson and Faith Hill over her impressive 40 year career. It was produced by Ray Kennedy (Steve Earle, Lucinda Williams) at the well known Room & Board studio in Nashville, Tennessee.

Tracklist:
1. All Around the World (03:21)
2. Put a Woman in Charge (03:40)
3. 4leafclover (03:41)
4. With Time (03:28)
5. Dancin' with the Past (02:50)
6. The Truth (03:35)
7. The Universe (03:22)
8. The Edge (05:23)
9. Pocket of My Past (02:58)
10. Hey Girl (02:51)
11. Everywhere We Go (02:37)
12. Walk You to Heaven (03:04)

foobar2000 1.4.1 / Dynamic Range Meter 1.1.1
log date: 2022-09-22 19:01:07

––––––––––––––––––––––––––––––––––––––––
Analyzed: Beth Nielsen Chapman / Crazytown
––––––––––––––––––––––––––––––––––––––––

DR Peak RMS Duration Track
––––––––––––––––––––––––––––––––––––––––
DR8 -0.20 dB -9.45 dB 3:21 01-All Around the World
DR7 -0.20 dB -8.01 dB 3:40 02-Put a Woman in Charge
DR7 -0.20 dB -9.09 dB 3:42 03-4LeafClover
DR8 -0.20 dB -10.03 dB 3:29 04-With Time
DR9 -0.20 dB -9.55 dB 2:50 05-Dancin' with the Past
DR7 -0.20 dB -8.80 dB 3:35 06-The Truth
DR8 -0.20 dB -8.78 dB 3:23 07-The Universe
DR7 -0.20 dB -9.60 dB 5:23 08-The Edge
DR7 -0.20 dB -7.81 dB 2:58 09-Pocket of My Past
DR7 -0.21 dB -8.61 dB 2:52 10-Hey Girl (We Can Deal With It)
DR7 -0.20 dB -8.01 dB 2:38 11-Everywhere We Go
DR8 -0.21 dB -9.85 dB 3:04 12-Walk You to Heaven
––––––––––––––––––––––––––––––––––––––––

Number of tracks: 12
Official DR value: DR8

Samplerate: 96000 Hz
Channels: 2
Bits per sample: 24
Bitrate: 2953 kbps
Codec: FLAC
================================================================================


Thanks to the Original customer!