Tags
Language
Tags
April 2024
Su Mo Tu We Th Fr Sa
31 1 2 3 4 5 6
7 8 9 10 11 12 13
14 15 16 17 18 19 20
21 22 23 24 25 26 27
28 29 30 1 2 3 4

Attacca World Music - Bihar (2022) [Official Digital Download 24/192]

Posted By: delpotro
Attacca World Music - Bihar (2022) [Official Digital Download 24/192]

Attacca World Music - Bihar (2022)
FLAC (tracks) 24-bit/192 kHz | Front Cover | Time - 59:40 minutes | 2,14 GB
World | Label: Hunnia Records, Official Digital Download

In addition to exploring the hitherto unknown treasures of Hungarian folk music, as a composer and folklorist Béla Bartók (1881-1945) worked tirelessly to collect and study the folk music of the surrounding peoples. He looked for ancient, old-style melodies: those that were the most typical of different ethnicities. He found these in peasant communities where, in the early 20th century, people still led a traditional form of life. He also examined how neighboring communities influenced each other's folk music. From 1909 to 1918 he collected nearly 3500 Romanian instrumental and vocal melodies.

The music you will hear on Attacca World Music’s BIHAR album uses this abundant collection as source material. Our musical interpretations were inspired by the instrumental and vocal melodies that Béla Bartók collected in Bihor county. (Béla Bartók: Cântece poporale româneşti din comitatul Bihor (Ungaria) / Chansons populaires roumaines du département Bihar (Hongrie). Bucureşti, 1913.)

The album also contains the arrangements of a few Hungarian folk melodies from Transylvanian Hungarians. Folksongs, a shared work by Béla Bartók and Zoltán Kodály, originally published in 1923. The arrangements combine authentic folk music elements from the Carpathian Basin with our own world music sound.

Tracklist:
01. Poargă românească
02. Ugroș
03. Părinte sfânţia ta (Phonograph Recording By Béla Bartók)
04. Părinte sfânţia ta
05. La toată lume-am plăcutu
06. Joacă, fată, ce-i juca
07. Joc 333 (Phonograph Recording By Béla Bartók)
08. Joc 333
09. A búbánat keserűség
10. Maruntel (Phonograph Recording By Béla Bartók)
11. Maruntel
12. De-aseară de-alaltă seară
13. Kis kertemben
14. Pontozó
15. Sűrű
16. Figura 21
17. Perpetum
18. Ej-haj elhagytál
19. Gólyaláb
20. Face maica tăieţăi (Phonograph Recording By Béla Bartók)
21. Face maica tăieţăi
22. Poargă românească (Phonograph Recording By Béla Bartók)

foobar2000 1.4.1 / Dynamic Range Meter 1.1.1
log date: 2023-03-13 14:04:52

––––––––––––––––––––––––––––––––––––––––
Analyzed: Attacca World Music / Bihar
––––––––––––––––––––––––––––––––––––––––

DR Peak RMS Duration Track
––––––––––––––––––––––––––––––––––––––––
DR12 -7.21 dB -22.42 dB 0:40 01-Poargă românească
DR12 -1.51 dB -16.68 dB 3:19 02-Ugroș
DR15 -2.70 dB -24.16 dB 0:15 03-Părinte sfânţia ta (Phonograph Recording By Béla Bartók)
DR13 -0.82 dB -16.52 dB 3:36 04-Părinte sfânţia ta
DR13 -0.89 dB -17.62 dB 2:05 05-La toată lume-am plăcutu
DR11 -0.79 dB -14.46 dB 4:11 06-Joacă, fată, ce-i juca
DR12 -1.46 dB -17.45 dB 0:26 07-Joc 333 (Phonograph Recording By Béla Bartók)
DR12 -1.84 dB -16.41 dB 5:11 08-Joc 333
DR12 -2.19 dB -19.07 dB 4:48 09-A búbánat keserűség
DR9 -2.63 dB -19.37 dB 0:24 10-Maruntel (Phonograph Recording By Béla Bartók)
DR10 -7.76 dB -20.92 dB 0:18 11-Maruntel
DR13 -1.47 dB -18.58 dB 3:16 12-De-aseară de-alaltă seară
DR11 -1.82 dB -14.84 dB 2:40 13-Kis kertemben
DR12 -0.63 dB -16.72 dB 4:14 14-Pontozó
DR13 -1.67 dB -17.05 dB 3:38 15-Sűrű
DR14 -1.51 dB -18.64 dB 4:17 16-Figura 21
DR13 -1.49 dB -17.26 dB 3:34 17-Perpetum
DR12 -2.19 dB -16.80 dB 3:38 18-Ej-haj elhagytál
DR14 -1.52 dB -18.49 dB 4:01 19-Gólyaláb
DR9 -0.68 dB -14.66 dB 0:23 20-Face maica tăieţăi (Phonograph Recording By Béla Bartók)
DR15 0.00 dB -19.28 dB 4:29 21-Face maica tăieţăi
DR13 -3.40 dB -21.70 dB 0:21 22-Poargă românească (Phonograph Recording By Béla Bartók)
––––––––––––––––––––––––––––––––––––––––

Number of tracks: 22
Official DR value: DR12

Samplerate: 192000 Hz
Channels: 2
Bits per sample: 24
Bitrate: 4544 kbps
Codec: FLAC
================================================================================


Thanks to the Original customer!